<?xml version="1.0" standalone="no"?>
<!DOCTYPE svg PUBLIC "-//W3C//DTD SVG 1.1//EN" "http://www.w3.org/Graphics/SVG/1.1/DTD/svg11.dtd" >
<svg xmlns="http://www.w3.org/2000/svg">
<metadata></metadata>
<defs>
<font id="nuicons18regular" horiz-adv-x="600" >
<font-face units-per-em="1200" ascent="960" descent="-240" />
<missing-glyph horiz-adv-x="500" />
<glyph unicode="&#x25fc;" horiz-adv-x="500" d="M0 0z" />
<glyph unicode="&#xe001;" d="M300 600q124 0 212 -88t88 -212t-88 -212t-212 -88t-212 88t-88 212t88 212t212 88zM250 105l280 293l-73 69l-207 -217l-100 106l-72 -69z" />
<glyph unicode="&#xe002;" d="M547 123l-70 -70l-177 176l-177 -176l-71 70l177 177l-177 177l71 70l177 -176l177 176l70 -70l-176 -177z" />
<glyph unicode="&#xe003;" d="M300 600q124 0 212 -88t88 -212t-88 -212t-212 -88t-212 88t-88 212t88 212t212 88zM485 185l-114 115l114 115l-70 70l-115 -114l-115 114l-70 -70l114 -115l-114 -115l70 -70l115 114l115 -114z" />
<glyph unicode="&#xe004;" d="M550 350v-100h-200v-200h-100v200h-200v100h200v200h100v-200h200z" />
<glyph unicode="&#xe005;" d="M300 600q124 0 212 -88t88 -212t-88 -212t-212 -88t-212 88t-88 212t88 212t212 88zM500 250v100h-150v150h-100v-150h-150v-100h150v-150h100v150h150z" />
<glyph unicode="&#xe006;" d="M550 350v-100h-500v100h500z" />
<glyph unicode="&#xe007;" d="M300 600q124 0 212 -88t88 -212t-88 -212t-212 -88t-212 88t-88 212t88 212t212 88zM500 250v100h-400v-100h400z" />
<glyph unicode="&#xe008;" d="M243 190h116q0 28 7.5 44.5t29.5 31.5q39 20 64.5 56t25.5 79q0 69 -46.5 110t-127.5 41q-76 0 -122.5 -35.5t-45.5 -106.5l1 -2h112q1 27 16.5 41.5t38.5 14.5q28 0 43.5 -17.5t15.5 -45.5t-13 -49t-36 -36q-45 -31 -61.5 -55t-17.5 -71zM359 48v92h-115v-92h115z" />
<glyph unicode="&#xe009;" d="M300 600q124 0 212 -88t88 -212t-88 -212t-212 -88t-212 88t-88 212t88 212t212 88zM331 105v66h-82v-66h82zM404 300.5q18 25.5 18 56.5q0 50 -33 79t-92 29q-54 0 -87 -25.5t-32 -75.5v-2h81q0 20 11 30t27 10q21 0 32 -12.5t11 -32.5t-9.5 -35t-26.5 -25 q-31 -23 -43 -40t-12 -51h82q0 20 5.5 32t21.5 22q28 15 46 40.5z" />
<glyph unicode="&#xe00a;" d="M350 50v347h-100v-347h100zM354 495.5q0 22.5 -15.5 38.5t-38.5 16t-38.5 -16t-15.5 -38q0 -15 7 -27.5t19.5 -20t27.5 -7.5q23 0 38.5 16t15.5 38.5z" />
<glyph unicode="&#xe00b;" d="M300 600q124 0 212 -88t88 -212t-88 -212t-212 -88t-212 88t-88 212t88 212t212 88zM350 100v250h-100v-250h100zM300 395q23 0 39 16t16 39t-16 39t-39 16t-39 -16t-16 -39t16 -39t39 -16z" />
<glyph unicode="&#xe00c;" d="M353 525l294 -492q21 -33 -26 -33h-592q-48 0 -26 35l295 486q11 20 27.5 21.5t27.5 -17.5zM365 45v75h-79v-75h79zM366 332v98h-82v-98l22 -181h39z" />
<glyph unicode="&#xe00d;" d="M150 0v600h-50v-600h50zM549 283v224q-29 -21 -62 -23.5t-62 9.5t-62 26.5t-62 26.5t-62.5 9.5t-62.5 -23.5v-273q34 30 74 33.5t76.5 -9l73 -25t76 -9t73.5 33.5z" />
<glyph unicode="&#xe00e;" d="M300 654l-83 -254h-267l216 -152l-82 -250l216 157l216 -159l-82 252l216 152h-267z" />
<glyph unicode="&#xe00f;" d="M405 550q60 0 102.5 -41.5t42.5 -99.5q0 -52 -31.5 -103t-71 -87t-92.5 -84.5t-80 -84.5q-28 36 -81 85t-92.5 84.5t-70.5 86.5t-31 103q0 58 43 99.5t103 41.5q90 0 129 -104q37 104 130 104z" />
<glyph unicode="&#xe010;" d="M200 315l100 -100l-33 -133q-15 18 -63.5 59.5t-91 79t-77.5 91.5t-35 104q0 56 42 96t100 40q88 0 125 -100zM458 519q58 0 100 -40t42 -96q0 -41 -25.5 -83.5t-65.5 -78.5t-80 -66.5t-78 -59.5t-51 -46l67 133l-100 133l66 103q36 101 125 101z" />
<glyph unicode="&#xe011;" d="M300 500q59 0 114 -20.5t92 -50t65 -59t41 -50.5l13 -20q-6 -8 -17.5 -21.5t-47.5 -48t-72.5 -61t-88.5 -48t-99 -21.5t-98 20.5t-90 50t-71 59t-49 50.5l-17 20q5 8 14 21.5t40 48t65.5 61t90.5 48t115 21.5zM300 150q62 0 106 44t44 106t-44 106t-106 44t-106 -44 t-44 -106t44 -106t106 -44zM200 300q0 -41 29.5 -70.5t70.5 -29.5t70.5 29.5t29.5 70.5t-29.5 70.5t-70.5 29.5t-70.5 -29.5t-29.5 -70.5z" />
<glyph unicode="&#xe012;" d="M595 565l-117 -117q43 -27 79.5 -64t52.5 -60l15 -24q-6 -8 -17.5 -21.5t-47.5 -48t-72.5 -61t-88.5 -48t-99 -21.5q-64 0 -133 37l-133 -132l-29 29l125 125q-40 26 -79 61.5t-57 57.5l-19 22q5 8 14 21.5t40 48t65.5 61t90.5 48t115 21.5q72 0 139 -32l127 127z M150 300q0 -49 31 -90l35 35q-16 26 -16 55q0 41 29.5 70.5t70.5 29.5q31 0 54 -17l36 36q-41 31 -90 31q-62 0 -106 -44t-44 -106zM300 150q62 0 106 44t44 106q0 48 -31 89l-35 -35q16 -26 16 -54q0 -42 -29.5 -71t-70.5 -29q-30 0 -54 16l-36 -36q39 -30 90 -30z" />
<glyph unicode="&#xe013;" d="M300 600q124 0 212 -88t88 -212t-88 -212t-212 -88t-212 88t-88 212t88 212t212 88zM525 300q0 93 -66 159t-159 66q-65 0 -119 -35l309 -309q35 54 35 119zM75 300q0 -93 66 -159t159 -66q65 0 119 35l-309 309q-35 -54 -35 -119z" />
<glyph unicode="&#xe014;" d="M600 351l50 -50l-50 -50h-50l-25 24l-25 -24l-25 24l-24 -24l-26 24l-25 -24h-159q-15 -44 -53.5 -72t-86.5 -28q-62 0 -106.5 44t-44.5 106t44.5 105.5t106.5 43.5q48 0 86.5 -27.5t53.5 -71.5h359zM50 251q21 0 36 14.5t15 35.5t-15 35.5t-36 14.5t-35.5 -14.5 t-14.5 -35.5t14.5 -35.5t35.5 -14.5z" />
<glyph unicode="&#xe015;" d="M450 350h100v-350h-500v350h100v100q0 62 44 106t106 44t106 -44t44 -106v-100zM212 450v-100h176v100q0 36 -26 62t-62 26t-62 -26t-26 -62z" />
<glyph unicode="&#xe016;" d="M550 600q62 0 106 -44t44 -106v-100h-62v100q0 36 -26 62t-62 26t-62 -26t-26 -62v-100h88v-350h-500v350h350v100q0 62 44 106t106 44z" />
<glyph unicode="&#xe017;" d="M375 400q31 0 53 -22t22 -53t-22 -53t-53 -22t-53 22t-22 53t22 53t53 22zM100 550h500v-500h-500v100h50v100h-50v100h50v100h-50v100zM550 310v30l-55 13q-4 20 -15 37l29 48l-21 21l-48 -29q-17 11 -37 15l-13 55h-30l-13 -55q-20 -4 -37 -15l-48 29l-21 -21l29 -48 q-11 -17 -15 -37l-55 -13v-30l55 -13q4 -20 15 -37l-29 -48l21 -21l48 29q17 -11 37 -15l13 -55h30l13 55q20 4 37 15l48 -29l21 21l-29 48q11 17 15 37zM0 50v500h50v-500h-50z" />
<glyph unicode="&#xe018;" d="M350 400h200v-200h-200v-150l-300 250l300 250v-150z" />
<glyph unicode="&#xe019;" d="M250 200h-200v200h200v150l300 -250l-300 -250v150z" />
<glyph unicode="&#xe01a;" d="M400 250v-200h-200v200h-150l250 300l250 -300h-150z" />
<glyph unicode="&#xe01b;" d="M200 350v200h200v-200h150l-250 -300l-250 300h150z" />
<glyph unicode="&#xe01c;" d="M400 50v500l-250 -250z" />
<glyph unicode="&#xe01d;" d="M200 50v500l250 -250z" />
<glyph unicode="&#xe01e;" d="M550 200h-500l250 250z" />
<glyph unicode="&#xe01f;" d="M50 400h500l-250 -250z" />
<glyph unicode="&#xe020;" d="M300 0q-124 0 -212 88t-88 212t88 212t212 88t212 -88t88 -212t-88 -212t-212 -88zM350 487l-200 -187l200 -188v375z" />
<glyph unicode="&#xe021;" d="M300 600q124 0 212 -88t88 -212t-88 -212t-212 -88t-212 88t-88 212t88 212t212 88zM250 112l200 188l-200 187v-375z" />
<glyph unicode="&#xe022;" d="M300 600q124 0 212 -88t88 -212t-88 -212t-212 -88t-212 88t-88 212t88 212t212 88zM488 250l-188 200l-187 -200h375z" />
<glyph unicode="&#xe023;" d="M300 600q124 0 212 -88t88 -212t-88 -212t-212 -88t-212 88t-88 212t88 212t212 88zM113 350l187 -200l188 200h-375z" />
<glyph unicode="&#xe024;" d="M250 124v124q70 0 132 -20.5t100 -50t66 -59t40 -50.5l12 -20q-2 7 -6 20t-19.5 49t-33.5 69t-48.5 73.5t-64 69.5t-80.5 49t-98 20v125l-250 -200z" />
<glyph unicode="&#xe025;" d="M350 124v124q-70 0 -132 -20.5t-100 -50t-66 -59t-40 -50.5l-12 -20q2 7 6 20t19.5 49t33.5 69t48.5 73.5t64 69.5t80.5 49t98 20v125l250 -200z" />
<glyph unicode="&#xe026;" d="M200 600l-60 -60l90 -90l-80 -80l-90 90l-60 -60v200h200zM450 230l90 -90l60 60v-200h-200l60 60l-90 90zM150 230l80 -80l-90 -90l60 -60h-200v200l60 -60zM400 600h200v-200l-60 60l-90 -90l-80 80l90 90z" />
<glyph unicode="&#xe027;" d="M85 165l-85 85v-250h250l-85 85l85 85l-80 80zM600 600h-250l85 -85l-85 -85l80 -80l85 85l85 -85v250z" />
<glyph unicode="&#xe028;" d="M520 600l-85 -85l-85 85v-250h250l-85 85l85 85zM0 250l85 -85l-85 -85l80 -80l85 85l85 -85v250h-250z" />
<glyph unicode="&#xe029;" d="M650 300l-150 -150v100h-150v-150h100l-150 -150l-125 150h75v150h-150v-100l-150 150l150 150v-100h150v150h-100l150 150l150 -150h-100v-150h150v100z" />
<glyph unicode="&#xe02a;" d="M600 600l-88 -88q-36 38 -85 59q-60 29 -127 29q-124 0 -212 -88t-88 -212t88 -212t212 -88q89 0 162 47.5t109 125.5l-67 32q-27 -59 -82 -94.5t-122 -35.5q-93 0 -159 66t-66 159t66 159t159 66q51 0 95 -22q33 -15 63 -45l-108 -108h250v250z" />
<glyph unicode="&#xe02b;" d="M200 350h-200v200l65 -65q42 54 103 84.5t132 30.5q111 0 194.5 -71.5t101.5 -178.5h-77q-17 76 -78.5 125.5t-140.5 49.5q-55 0 -102.5 -25t-78.5 -69zM600 250v-200l-68 67q-42 -54 -103.5 -85.5t-132.5 -31.5q-111 0 -194.5 71.5t-101.5 178.5h77q17 -76 78 -125.5 t141 -49.5q55 0 102.5 25.5t79.5 69.5l-82 80h204z" />
<glyph unicode="&#xe02c;" d="M100 150v300h400v-300h-400zM50 500v-100h-50v150h150v-50h-100zM50 200v-100h100v-50h-150v150h50zM450 550h150v-150h-50v100h-100v50zM550 100v100h50v-150h-150v50h100z" />
<glyph unicode="&#xe02d;" d="M522 113l-35 -36l-212 213l-212 -213l-35 36l212 212l-212 212l35 36l212 -213l212 213l35 -36l-212 -212z" />
<glyph unicode="&#xe02e;" d="M221 70l379 391l-72 69l-306 -316l-150 156l-72 -69z" />
<glyph unicode="&#xe02f;" d="M175 48l468 468l-36 36l-432 -433l-182 183l-36 -36z" />
<glyph unicode="&#xe030;" d="M409 18l35 35l-247 247l247 247l-35 35l-283 -282z" />
<glyph unicode="&#xe031;" d="M191 582l-35 -35l247 -247l-247 -247l35 -35l283 282z" />
<glyph unicode="&#xe032;" d="M-8 191l36 -35l247 247l247 -247l36 35l-283 283z" />
<glyph unicode="&#xe033;" d="M558 409l-36 35l-247 -247l-247 247l-36 -35l283 -283z" />
<glyph unicode="&#xe034;" d="M550 350v-50h-250v-250h-50v250h-250v50h250v250h50v-250h250z" />
<glyph unicode="&#xe035;" d="M550 300v50h-550v-50h550z" />
<glyph unicode="&#xe036;" d="M350 600h200v-200l-82 82l-122 -122l-36 36l122 122zM240 254l-122 -122l82 -82h-200v200l82 -82l122 122z" />
<glyph unicode="&#xe037;" d="M500 350h-200v200l82 -82l122 122l36 -36l-122 -122zM10 96l122 122l-82 82h200v-200l-82 82l-122 -121z" />
<glyph unicode="&#xe038;" d="M-50 250h250v-200h-250v200zM150 100v100h-150v-100h150zM150 550h450v-400h-150v50h100v300h-350v-50h-50v100zM50 300v100h350v-300h-150v50h100v200h-250v-50h-50z" />
<glyph unicode="&#xe039;" d="M0 550h600v-100h-600v100zM0 250v100h600v-100h-600zM0 50v100h600v-100h-600z" />
<glyph unicode="&#xe03a;" d="M-50 250v150h150v-150h-150zM200 250v150h150v-150h-150zM450 400h150v-150h-150v150z" />
<glyph unicode="&#xe03c;" d="M300 598v-52q54 -6 85 -35.5t45 -80.5t24 -108t34 -134t62 -140h-200q0 -32 -22 -54t-53 -22t-53 22t-22 54h-200q38 63 62 140t34 134t24 108t45 80.5t85 35.5v52h50z" />
<glyph unicode="&#xe100;" d="M100 100v400h100v-400h-100zM250 300l250 200v-400z" />
<glyph unicode="&#xe101;" d="M300 300l250 200v-400zM50 300l250 200v-400z" />
<glyph unicode="&#xe102;" d="M100 100v400h150v-400h-150zM350 500h150v-400h-150v400z" />
<glyph unicode="&#xe103;" d="M500 100v400h-400v-400h400z" />
<glyph unicode="&#xe104;" d="M550 300l-400 200v-400z" />
<glyph unicode="&#xe105;" d="M300 300l-250 200v-400zM550 300l-250 200v-400z" />
<glyph unicode="&#xe106;" d="M500 100v400h-100v-400h100zM350 300l-250 200v-400z" />
<glyph unicode="&#xe107;" d="M153 313q-35 37 -53 37h-150v100h150q45 0 115 -68q-48 -54 -50 -56q-6 -8 -12 -13zM500 526l150 -126l-150 -125v75h-100q-16 0 -54 -39t-77 -86t-87 -86t-82 -39h-150v100h150q16 0 54 39t77 86t87 86t82 39h100v76zM500 200v75l150 -125l-150 -125v75h-100 q-44 0 -115 69q48 54 50 56q6 9 12 13q36 -38 53 -38h100z" />
<glyph unicode="&#xe108;" d="M500 350h-400q-28 0 -53.5 -10.5t-42.5 -25t-29.5 -29t-18.5 -25.5l-6 -10q0 77 44.5 138.5t105.5 61.5h400v76l150 -126l-150 -125v75zM100 200h400q28 0 54 13t42.5 31t29 36.5t18.5 31.5l6 13q0 -79 -45 -152t-105 -73h-400v-75l-150 125l150 125v-75z" />
<glyph unicode="&#xe109;" d="M200 450h200q83 0 141.5 -58.5t58.5 -141.5q0 -82 -59 -141t-141 -59h-200v100h200q41 0 70.5 29.5t29.5 70.5q0 42 -29.5 71t-70.5 29h-200v-100l-200 150l200 150v-100z" />
<glyph unicode="&#xe10a;" d="M400 450h-200q-83 0 -141.5 -58.5t-58.5 -141.5q0 -82 59 -141t141 -59h200v100h-200q-41 0 -70.5 29.5t-29.5 70.5q0 42 29.5 71t70.5 29h200v-100l200 150l-200 150v-100z" />
<glyph unicode="&#xe10b;" d="M300 400l150 150v-500l-150 150h-150v200h150z" />
<glyph unicode="&#xe10c;" d="M52 400h150l150 150v-500l-150 150h-150v200zM491 459q65 -66 65 -159t-65 -159q-7 -7 -18 -7t-18 7t-7 17.5t7 17.5q51 52 51 124t-51 124q-7 7 -7 17.5t7 17.5t18 7t18 -7z" />
<glyph unicode="&#xe10d;" d="M0 399h151l150 150v-500l-150 150h-151v200zM390 458q65 -66 65 -159.5t-65 -158.5q-8 -8 -18 -8t-18 8q-16 18 0 35q51 51 51 123.5t-51 124.5q-7 7 -7 17t7 18q8 8 18 8t18 -8zM462 529q95 -95 95 -230t-95 -230q-6 -7 -17 -7t-18 7t-7 17.5t7 17.5q80 81 80 195 t-80 194q-7 7 -7 18t7 18t17.5 7t17.5 -7zM535 599q125 -123 125 -300q0 -176 -125 -301q-7 -7 -17 -7q-11 0 -18 7q-8 8 -8 18t8 18q110 110 110 265t-110 265q-8 8 -8 18t8 17q18 17 35 0z" />
<glyph unicode="&#xe10e;" d="M1 400h150l150 150v-500l-150 150h-150v200zM619 382l-82 -82l82 -82l-35 -36l-83 83l-82 -83l-35 36l82 82l-82 82l35 36l82 -83l83 83z" />
<glyph unicode="&#xe10f;" d="M100 400h150l150 150v-500l-150 150h-150v200zM185 450h-70l-133 133l35 35zM450 185l168 -168l-35 -35l-133 133v70z" />
<glyph unicode="&#xe110;" d="M200 500l350 50v-100v-325q0 -31 -29.5 -53t-70.5 -22t-70.5 22t-29.5 53t29.5 53t70.5 22q29 0 50 -10v253l-250 -35v-333q0 -31 -29.5 -53t-70.5 -22t-70.5 22t-29.5 53t29.5 53t70.5 22q29 0 50 -10v260v100z" />
<glyph unicode="&#xe111;" d="M499 554v-432q0 -32 -29 -54t-71 -22q-41 0 -70.5 22.5t-29.5 53.5t29.5 53t70.5 22q24 0 51 -10v360zM650 318q0 50 -15.5 87t-38 54t-44.5 26.5t-38 10.5l-15 1v-100q40 0 70 -71t30 -180q51 100 51 172zM399 447v50h-399v-50h399zM399 346v51h-399v-51h399zM399 246 v51h-399v-51h399zM279 197h-279v-51h253q6 28 26 51z" />
<glyph unicode="&#xe112;" d="M405 550q60 0 102.5 -41.5t42.5 -99.5q0 -52 -31.5 -103t-71 -87t-92.5 -84.5t-80 -84.5q-28 36 -81 85t-92.5 84.5t-70.5 86.5t-31 103q0 58 43 99.5t103 41.5q90 0 129 -104q37 104 130 104z" />
<glyph unicode="&#xe113;" d="M300 200q-41 0 -70.5 29.5t-29.5 70.5v200q0 41 29.5 70.5t70.5 29.5t70.5 -29.5t29.5 -70.5v-200q0 -41 -29.5 -70.5t-70.5 -29.5zM450 400h50v-100q0 -69 -42.5 -122.5t-107.5 -70.5v-57h50v-50h-200v50h50v57q-65 17 -107.5 70.5t-42.5 122.5v100h50v-100 q0 -62 44 -106t106 -44t106 44t44 106v100z" />
<glyph unicode="&#xe114;" d="M300 250q-21 0 -35.5 14.5t-14.5 35.5v250q0 21 14.5 35.5t35.5 14.5t35.5 -14.5t14.5 -35.5v-250q0 -21 -14.5 -35.5t-35.5 -14.5zM449 499l36 37q54 -42 84.5 -103.5t30.5 -132.5q0 -124 -88 -212t-212 -88t-212 88t-88 212q0 71 30.5 132.5t84.5 103.5l36 -37 q-47 -35 -74 -87t-27 -112q0 -104 73 -177t177 -73t177 73t73 177q0 60 -27 112t-74 87z" />
<glyph unicode="&#xe115;" d="M650 450v-50v-300v-50h-650v400h150l100 100h150l100 -100h150zM325 100q72 0 123.5 51.5t51.5 123.5t-51.5 123.5t-123.5 51.5t-123.5 -51.5t-51.5 -123.5t51.5 -123.5t123.5 -51.5zM425 275q0 41 -29.5 70.5t-70.5 29.5t-70.5 -29.5t-29.5 -70.5t29.5 -70.5t70.5 -29.5 t70.5 29.5t29.5 70.5z" />
<glyph unicode="&#xe116;" d="M650 500v-400l-200 160v-160h-450v400h450v-150z" />
<glyph unicode="&#xe117;" d="M0 550h550v-550h-550v550zM100 450v50h-50v-50h50zM100 350v50h-50v-50h50zM100 250v50h-50v-50h50zM100 150v50h-50v-50h50zM100 50v50h-50v-50h50zM500 450v50h-50v-50h50zM500 350v50h-50v-50h50zM500 250v50h-50v-50h50zM500 150v50h-50v-50h50zM500 50v50h-50v-50 h50zM400 300v200h-250v-200h250zM400 50v200h-250v-200h250z" />
<glyph unicode="&#xe118;" d="M150 600h300q21 0 35.5 -14.5t14.5 -35.5v-500q0 -21 -14.5 -35.5t-35.5 -14.5h-300q-21 0 -35.5 14.5t-14.5 35.5v500q0 21 14.5 35.5t35.5 14.5zM300 25q21 0 35.5 14.5t14.5 35.5t-14.5 35.5t-35.5 14.5t-35.5 -14.5t-14.5 -35.5t14.5 -35.5t35.5 -14.5zM450 150v350 h-300v-350h300z" />
<glyph unicode="&#xe119;" d="M100 600h400q21 0 35.5 -14.5t14.5 -35.5v-500q0 -21 -14.5 -35.5t-35.5 -14.5h-400q-21 0 -35.5 14.5t-14.5 35.5v500q0 21 14.5 35.5t35.5 14.5zM350 37v25h-100v-25h100zM450 100v400h-300v-400h300z" />
<glyph unicode="&#xe11a;" d="M650 50v50h-700v-50h700zM50 550h500v-350h-500v350zM500 250v250h-400v-250h400zM550 200l100 -100h-700l100 100h500zM183 112h227l-18 33h-190z" />
<glyph unicode="&#xe11b;" d="M50 550h500q21 0 35.5 -14.5t14.5 -35.5v-350q0 -21 -14.5 -35.5t-35.5 -14.5h-175v-50l75 -50h-300l75 50v50h-175q-21 0 -35.5 14.5t-14.5 35.5v350q0 21 14.5 35.5t35.5 14.5zM550 200v300h-500v-300h500z" />
<glyph unicode="&#xe11c;" d="M450 375v175h-300v-175h300zM500 0l-50 200h-300l-50 -200h400zM50 350h500q20 0 35 -15t15 -35v-150q0 -20 -15 -35t-35 -15h-49l-31 125h-20v25h-300v-25h-20l-30 -125h-50q-20 0 -35 15t-15 35v150q0 20 15 35t35 15zM525 237q16 0 27 11t11 27t-11 26.5t-27 10.5 t-26.5 -10.5t-10.5 -26.5t10.5 -27t26.5 -11z" />
<glyph unicode="&#xe11d;" d="M-50 550h700v-500h-700v500zM125 513q-16 0 -26.5 -11t-10.5 -27q0 -15 10.5 -26t26.5 -11t27 11t11 26q0 16 -11 27t-27 11zM-12 475q0 -15 10.5 -26t26.5 -11t27 11t11 26q0 16 -11 27t-27 11t-26.5 -11t-10.5 -27zM600 100v300h-600v-300h600zM600 450v50h-350v-50 h350z" />
<glyph unicode="&#xe11e;" d="M249 0l301 550l-550 -301h249v-249z" />
<glyph unicode="&#xe11f;" d="M0 50v450l150 50v-450zM200 100v450l200 -50v-450zM450 500l150 50v-450l-150 -50v450z" />
<glyph unicode="&#xe120;" d="M600 250h-108q-7 -43 -25 -82l83 -83l-36 -35l-72 72q-41 -57 -92 -69v298q64 6 108 43l14 14q13 16 15 19q0 -2 1 -4l53 54l35 -36l-79 -79q3 -36 3 -37q0 -9 -2 -25h102v-50zM191 394q44 -37 109 -43v-298q-51 11 -93 69l-72 -72l-35 35l82 83q-18 39 -25 82h-107v50 h101q-1 8 -1 25q0 13 2 37l-79 79l35 36l53 -54q1 2 1 4q4 -6 29 -33zM450 475q0 -31 -37 -53t-88 -22q-52 0 -88.5 22t-36.5 53q0 40 52 61q-2 -4 -2 -11q0 -11 7 -18t18 -7t18 7t7 18q0 14 -12 21q16 4 37 4q13 0 37 -4q-12 -6 -12 -21q0 -11 7 -18t18 -7t18 7t7 18 q0 7 -3 11q53 -22 53 -61z" />
<glyph unicode="&#xe121;" d="M237 500h100l-85 -400h-100l32 150h-150l-32 -150h-100l85 400h100l-32 -150h150zM537 500q83 0 129 -58.5t29 -141.5q-18 -83 -89 -141.5t-154 -58.5h-150l53 250h100l-31 -150h50q41 0 76.5 29.5t44.5 70.5t-14.5 70.5t-64.5 29.5h-50h-100l21 100h150z" />
<glyph unicode="&#xe122;" d="M300 154l-217 -157l83 249l-216 152h267l83 255v-499z" />
<glyph unicode="&#xe123;" d="M100 50l200 250l200 -250h-400zM-50 550h700v-400h-102l-40 50h92v300h-600v-300h92l-40 -50h-102v400z" />
<glyph unicode="&#xe124;" d="M150 50v450h300v-450h-300zM0 50v450h100v-450h-100zM500 500h100v-450h-100v450zM250 600v-50h-50v50q0 21 14.5 35.5t35.5 14.5h100q21 0 35.5 -14.5t14.5 -35.5v-50h-50v50h-100z" />
<glyph unicode="&#xe125;" d="M0 500h600v-150h-600v150zM350 250v50h250v-250h-600v250h250v-50h100zM250 600v-50h-50v50q0 21 14.5 35.5t35.5 14.5h100q21 0 35.5 -14.5t14.5 -35.5v-50h-50v50h-100z" />
<glyph unicode="&#xe126;" d="M0 500h600v-450h-600v450zM250 600v-50h-50v50q0 21 14.5 35.5t35.5 14.5h100q21 0 35.5 -14.5t14.5 -35.5v-50h-50v50h-100z" />
<glyph unicode="&#xe127;" d="M300 492l-35 -108l-11 -34h-37h-109l87 -62l30 -21l-11 -35l-34 -102l91 65l29 22l30 -22l90 -66l-34 103l-11 35l30 22l87 61h-109h-37l-11 34zM300 654l83 -254h267l-216 -152l82 -252l-216 159l-216 -157l82 249l-216 153h267z" />
<glyph unicode="&#xe128;" d="M405 500q-57 0 -83 -71q-5 -15 -18 -24t-29 -9t-29 9t-18 24q-15 42 -35.5 56.5t-45.5 14.5q-40 0 -68.5 -27t-28.5 -64q0 -28 11 -54.5t36 -55.5t44 -47.5t57 -52.5q53 -48 77 -73q24 25 77 73q38 34 57 52.5t44 47.5t36 55.5t11 54.5q0 38 -28 64.5t-67 26.5zM405 550 q30 0 56.5 -11t46 -30t31 -45t11.5 -55q0 -42 -19 -82t-52 -75t-67 -66t-73.5 -68.5t-63.5 -67.5q-24 30 -63.5 67.5t-73.5 68.5t-67 66t-52 75t-19 82q0 58 43.5 99.5t103.5 41.5q90 0 128 -104q38 104 130 104z" />
<glyph unicode="&#xe129;" d="M0 600l88 -88q38 38 85 59q59 29 127 29q124 0 212 -88t88 -212t-88 -212t-212 -88q-89 0 -162 47.5t-109 125.5l67 32q13 -29 34.5 -53t47.5 -41t57.5 -26.5t64.5 -9.5q93 0 159 66t66 159t-66 159t-159 66q-50 0 -95 -22q-35 -16 -63 -45l108 -108h-250v250z" />
<glyph unicode="&#xe12a;" d="M450 200q41 0 70.5 -29.5t29.5 -70.5t-29.5 -70.5t-70.5 -29.5t-70.5 29.5t-29.5 70.5q0 16 6 33l-140 93q-28 -26 -66 -26q-41 0 -70.5 29.5t-29.5 70.5t29.5 70.5t70.5 29.5q38 0 66 -26l140 93q-6 17 -6 33q0 27 13.5 50t36.5 36.5t50 13.5q41 0 70.5 -29.5 t29.5 -70.5t-29.5 -70.5t-70.5 -29.5q-38 0 -66 26l-140 -93q6 -17 6 -33t-6 -33l140 -93q28 26 66 26z" />
<glyph unicode="&#xe200;" d="M174 479q-32 -1 -47 15.5t-12 38.5q2 22 20 38.5t45 16.5q32 0 51 -13.5t21 -33.5q2 -24 -18.5 -43t-59.5 -19zM448 485q-33 -1 -49 15.5t-13 40.5q2 21 19 37t44 18q34 3 55 -14.5t20 -40.5q0 -21 -19.5 -37.5t-56.5 -18.5zM482 368q83 8 82 -57q0 -67 -74 -159 q-83 -103 -180 -139q-37 -13 -70 -13q-109 0 -164 105q-41 80 -30 165q9 69 49 77q4 1 8 1q176 4 226.5 7t152.5 13zM246 62q86 0 172 91q61 65 72 117q7 36 -21 36q-38 0 -139.5 -6.5t-215.5 -10.5q-19 -1 -24 -57.5t33 -113t123 -56.5z" />
<glyph unicode="&#xe201;" d="M356 0v308h82l11 92h-93v56q0 22 7 29.5t35 7.5h51l-1 107h-82q-71 0 -102 -34t-31 -99v-67h-61v-92h61v-308h123z" />
<glyph unicode="&#xe202;" d="M600 600v-600h-204v232h78l12 91h-90v58q0 22 9.5 33t35.5 11h48v81q-26 3 -70 3q-53 0 -84.5 -31t-31.5 -88v-67h-78v-91h78v-232h-303v600h600z" />
<glyph unicode="&#xe203;" d="M608 491q-23 -37 -63 -66q1 -5 1 -16q0 -64 -24 -127t-68 -115t-113.5 -84.5t-153.5 -32.5q-105 0 -195 57q22 -2 31 -2q89 0 157 54q-41 1 -73.5 25.5t-44.5 62.5q12 -3 24 -3q16 0 33 5q-44 8 -72.5 43t-28.5 81v1q28 -15 57 -16q-56 38 -56 105q0 35 17 64 q102 -124 260 -132q-3 13 -3 29q0 52 37 89t89 37q55 0 92 -40q45 9 80 31q-13 -44 -55 -70q38 4 72 20z" />
<glyph unicode="&#xe204;" d="M298 600h-85q-6 -45 -21 -77q-15 -29 -41 -51q-23 -20 -60 -33v-85h66v-210q0 -42 9 -63q9 -22 31 -41q23 -20 54 -30q30 -10 72 -10q39 0 68 7t69 26v94q-46 -29 -90 -29q-25 0 -46 12q-16 10 -20 23q-6 15 -6 67v154h143v94h-143v152z" />
<glyph unicode="&#xe205;" d="M10 464q3 -1 6 -3t4.5 -3.5t2.5 -3l1 -1.5v-1v-213q2 -70 -31 -99q-11 -9 -19 -9q-4 0 -5 3l3 12q4 11 6 26.5t2 25.5v11l1 229v3q-1 1 -3 0q-37 -32 -40 -93q0 -14 3 -25.5t6 -16.5l3 -5l3 -7q0 -5 -5 -6q-10 1 -23 11.5t-19 23.5q-3 5 -4.5 12t-1.5 11v4q1 11 4.5 24.5 t13.5 32t24 31.5q13 13 25 20.5t17 8.5l6 1q5 1 20 -4zM700 199q-17 -35 -43 -32q-15 1 -24.5 11t-12 17.5t-2.5 12.5q-1 -2 -2.5 -4.5t-6.5 -10t-11.5 -12.5t-17 -9.5t-23.5 -4.5q-8 0 -15.5 3.5t-12 8t-8 9t-5.5 7.5l-1 4q-4 7 -8 21q0 -2 -1 -4q-7 -18 -19.5 -33 t-30.5 -15q-21 0 -33.5 18.5t-14.5 36.5l-1 19q-32 -75 -91 -75q-23 0 -37 5.5t-17 9.5t-3 6q0 7 5 14q8 12 15 12l11 -6q11 -11 23 -11q18 1 21 26q1 18 -21 39l-22 20q-9 -15 -23 -37.5t-19 -31.5q-17 -26 -32.5 -36t-25.5 -9q-26 3 -26 54v32.5t1 34.5t1.5 27.5t0.5 13.5 l-4 1q-21 -22 -36.5 -62.5t-20.5 -65.5t-5 -30t-9 -5q-1 0 -1.5 0.5t-1 0.5h-4h-9.5q-4 0 -7.5 3.5t-5 8.5t-2.5 10t-1 8v4l1 157q1 8 22 3q7 -2 11 -4.5t4 -3.5l1 -2l-1 -91q12 36 24.5 58.5t21 32t19.5 11t15.5 0t13.5 -5.5q8 -5 12 -10.5t4 -9.5v-4q-2 -68 -3 -92 q-1 -33 8 -35q4 -1 12 8t16 22.5t16 26.5t13 23l5 9q-14 19 -10.5 36t17.5 28q5 4 11 6t10 3h4h5.5t9.5 -4.5t6 -12.5q0 -4 -1 -8.5t-3 -8.5t-4.5 -8.5t-4.5 -7.5t-4 -5.5t-4 -4.5l-1 -1q25 -17 36.5 -27t20 -21t9.5 -22l-1 -19q14 12 22 26t9 22l2 9v99h-45q-3 0 -4 9 q0 7 2.5 12.5t4.5 7.5l2 2h43q1 44 2 51q1 8 6.5 9.5t20.5 -2.5q5 -1 9 -2.5t5.5 -2.5t2.5 -2l1 -1v-1l-2 -52q48 -2 54 -3q5 0 6.5 -2.5t0.5 -10.5q-1 -5 -3 -8t-3 -4l-2 -1l-53 -1l-4 -115q0 -60 17 -60q11 0 20 12.5t13 25.5l4 13l1 1q-1 14 1 29q2 23 9 42t22 33.5 t35 14.5q26 1 40 -25v10q0 1 0.5 3t4.5 4.5t12 0.5q25 -4 24 -15q-1 -8 -1 -20.5t-1 -46.5t0 -49q2 -21 6.5 -30.5t13.5 -8.5q4 0 10 4.5t9.5 5.5t10.5 -3zM572 193q4 -1 9 1.5t10 8.5t9 15.5t7 24.5t4 34q0 18 -3 31t-7.5 18t-8.5 8t-8 3h-3q-30 -1 -35 -67q-5 -73 26 -77z " />
<glyph unicode="&#xe206;" d="M393 589l-50 -39h-43q25 -10 40 -39q12 -27 12 -44q0 -22 -2 -29q-12 -30 -14 -33q-9 -12 -23.5 -24t-28.5 -28q-18 -22 -20 -37q0 -13 7 -21q4 -3 14.5 -11t16.5 -13q47 -39 61 -61q20 -34 15 -79q-6 -48 -65 -89t-147 -38q-35 1 -64 9t-45 18.5t-27.5 21t-15.5 17.5 l-3 8q-3 6 -6.5 17t2 41t30.5 56q24 26 67.5 40t74.5 15l31 1l2 1q0 2 -4 6q-12 14 -15 33t-1 31l3 12q-34 -4 -66 5l-36 18q-1 0 -2.5 1t-6 5l-9 8t-10 11t-9.5 15t-7.5 18.5t-5 22.5t0 27t5.5 31q12 44 50 70t79 33q20 4 44 4h4zM321 144q-3 15 -24 35t-40 33l-19 12 h-23.5t-21.5 -1q-51 -5 -78 -24q-20 -12 -29 -24q-19 -25 -13 -50t17 -41t18 -20q49 -26 98 -26q47 0 66 10q39 21 47.5 42t1.5 54zM230 354q3 1 8 3t18.5 11t18.5 23t8.5 39.5t-10.5 59.5q-28 83 -87 83l-26 -5q-2 -1 -8.5 -4t-10.5 -6t-10.5 -9t-9.5 -14t-6 -20t-2.5 -30 t4.5 -40q5 -30 18.5 -50t29 -28t30.5 -11.5t25 -2.5zM550 501h99v-50h-99v-100h-50v100h-99v50h99v99h50v-99z" />
<glyph unicode="&#xe207;" d="M403 295q0 43 -30.5 73t-72.5 30q-13 0 -22.5 9.5t-9.5 22.5t9.5 22.5t22.5 9.5q69 0 117.5 -49t48.5 -118q0 -13 -9 -22t-22 -9q-4 0 -7.5 0.5t-7 2t-6 4t-4.5 5t-4 6t-2.5 7t-0.5 6.5zM650 500v-400h-201q-68 -50 -149 -50t-149 50h-201v400h50v50h100v-50h51 q68 50 149 50t149 -50h201zM36 525v-25h32v25h-32zM0 450v-300h101q-51 68 -51 150t51 150h-101zM262 104q20 -4 38 -4t38 4q8 1 23 7q1 0 5 1t6 2q15 6 29 15h1h1q15 9 28 21q69 60 69 150t-69 150q-13 11 -28 21h-0.5h-1.5q-14 9 -29 15q-2 1 -6 2t-5 1q-15 6 -23 7 q-20 4 -38 4t-38 -4q-8 -1 -23 -7q-1 0 -5 -1t-6 -2q-15 -6 -29 -15h-1.5h-0.5q-15 -10 -28 -21q-69 -60 -69 -150t69 -150q13 -12 28 -21h2q14 -9 29 -15q2 -1 6 -2t5 -1q15 -6 23 -7zM600 150v300h-101q51 -68 51 -150t-51 -150h101z" />
<glyph unicode="&#xe208;" d="M600 292v8q0 127 -90 214l-97 -299q-4 -10 2 -18t17 -8h147q20 52 21 103zM482 506l9 26q-84 68 -191 68h-5q-74 -2 -135 -35l22 -16l234 -170q20 -12 29 11zM568 165h-313q-11 0 -16.5 -7.5t-2.5 -18.5l37 -113l9 -25q3 -1 11 -1h7h6q84 1 154.5 46.5t107.5 118.5z M256 3l-8 24l-1 2l-88 272q-4 10 -12.5 13t-17.5 -4l-97 -71l-22 -16q23 -86 90 -146.5t156 -73.5zM4 249l254 184q9 7 9 16t-9 16l-99 71l-21 16q-62 -40 -99.5 -105t-38.5 -142v-5v-6q0 -4 0.5 -10t0.5 -9q1 -4 2 -12.5t1 -13.5z" />
<glyph unicode="&#xe209;" d="M150 450q62 0 106 -44t44 -106t-44 -106t-106 -44t-106 44t-44 106t44 106t106 44zM500 450q62 0 106 -44t44 -106t-44 -106t-106 -44t-106 44t-44 106t44 106t106 44zM500 200q41 0 70.5 29.5t29.5 70.5q0 42 -29.5 71t-70.5 29q-42 0 -71 -29t-29 -71q0 -41 29 -70.5 t71 -29.5z" />
<glyph unicode="&#xe20a;" d="M642 329q8 -22 8 -47t-8 -47q-8 -23 -22 -39q-12 -14 -35 -26q-21 -9 -47 -9q-20 0 -38 6q-9 3 -33 16q-13 9 -28 24q-7 6 -26 27l-14 -14l-13 -13q-15 -15 -28 -24q-16 -10 -31 -16q-18 -6 -39 -6q-28 0 -47 9q-23 11 -36 26q-13 13 -21 34l-1 -1q-8 -20 -26 -38 q-17 -15 -39 -24t-47 -8q-24 0 -45 6q-18 5 -39 19q-17 14 -26 33q-11 20 -11 45h66q3 -24 17 -36q14 -13 37 -13q12 0 24 5q12 7 17 14q7 8 12 20q4 16 4 24t-4 24q-6 14 -11 19q-7 8 -18 13q-9 5 -24 5q-17 0 -29 -6q-10 -6 -21 -20h-60l33 181h182v-55h-135l-13 -74l1 -1 q12 12 29 19q15 6 35 6q25 0 43 -9q19 -9 32 -24q9 -10 15 -26q8 22 22 37q14 17 35 26t46 9q22 0 40 -6q22 -9 33 -18q13 -9 28 -24q14 -14 27 -30q16 20 25 30q12 12 29 24q11 9 33 18q18 6 38 6q26 0 47 -9q22 -10 35 -25q14 -14 22 -37zM356 260q4 4 9.5 10t8.5 9 q-12 12 -19 18q-3 4 -21 19q-16 10 -24 14q-13 5 -25 5q-23 0 -36 -17q-13 -18 -13 -38q0 -23 14 -39q14 -15 37 -15q12 0 25 5q10 4 23 13q13 8 21 16zM576 242q13 14 13 38q0 22 -14 39q-13 16 -38 16q-12 0 -25 -5q-3 -2 -23 -14q-14 -12 -20 -19l-18 -18q9 -10 19 -19 q6 -7 20 -17q14 -8 23 -12q13 -5 26 -5q23 0 37 16z" />
<glyph unicode="&#xe20b;" d="M582 254q3 -49 2 -88q0 -67 -7 -104q-6 -36 -28 -53q-16 -12 -39 -13q-3 0 -8.5 -0.5t-6.5 -0.5q-12 -1 -93 -4q-44 -1 -162 -1q-9 0 -28.5 0.5t-24.5 1.5q-98 3 -109 6q-19 3 -33 19q-16 20 -22 61q-11 107 1 204q4 40 25 61q12 12 26 15q16 4 117.5 7t182.5 1 q107 -2 143 -6q33 -4 49 -36q10 -19 15 -70zM183 273v16v16h-56h-57v-16v-16h19l19 -1l1 -103v-104q0 -1 18 -1h16l1 104v104zM283 153v90h-15h-15v-69v-69l-7 -7q-7 -7 -11 -7q-8 -3 -11 3q-2 3 -2 76v73h-16h-15v-78q0 -86 5 -94q8 -15 30 -7q10 3 19 14l6 5q2 0 2 -10v-9 h15h15v89zM403 77q6 11 6 77q0 60 -2 66q-6 26 -29 25q-14 -1 -24 -12l-7 -6q-1 0 -1 39v39h-16h-15v-120v-121h15h16v8q0 8 1 8q4 -3 7 -6q18 -17 36 -11q10 4 13 14zM534 125h-16h-15l-1 -11q0 -16 -6 -21q-9 -8 -19 0q-9 5 -9 37l1 18h32l33 1v26q-1 35 -6 45 q-13 27 -43 25q-5 0 -15 -2q-25 -10 -31 -34q-1 -6 -1 -55q0 -56 5 -67q8 -14 24.5 -21t32.5 -2q26 6 32 31q2 6 2 30zM374 209q1 -3 2 -54q0 -51 -2 -55q-2 -5 -4 -6q-9 -5 -20 3l-2 2v55v54l2 3q7 4 12 4q8 2 12 -6zM503 174h-17q-16 0 -18 2q0 23 2 29q3 12 16 12 q10 0 14 -8q2 -4 2 -19zM249 635l17 -3q0 -1 -3.5 -12.5t-9.5 -32t-12 -38.5q0 -2 -1.5 -6t-3.5 -10t-3 -10q-1 -5 -4 -14.5t-3 -10.5l-3 -8v-49q0 -50 -1 -50q-2 -1 -19 -1t-18 1t-1 38t1 44q1 15 -10 48q-8 21 -12 36q-24 78 -22 78h38l13 -45q3 -11 6 -22.5t4 -17.5l2 -6 q4 14 8 32l16 58q0 1 21 1zM343 567q15 -10 19 -30q2 -7 2 -55q0 -56 -6 -68q-9 -19 -29 -24q-6 -2 -20 -2q-27 4 -36 24q-8 14 -8 75q1 46 2 52q7 22 25 31q26 12 51 -3zM329 479q0 46 -1 52q-3 11 -10 12q-13 4 -16 -10q-2 -5 -2 -51.5t2 -50.5q2 -9 9 -11q7 0 12 3 q4 3 5 10t1 46zM485 573v-91v-91l-2 -1q-29 0 -32 1q-1 0 -1 8v8l-5 -4q-18 -18 -35 -15q-12 1 -17 11q-4 9 -4 94v80h17h17l1 -74q0 -59 0.5 -68.5t4.5 -10.5q6 -1 15 8l6 6v69v70h35z" />
<glyph unicode="&#xe220;" d="M489 206q0 83 -97 111v2q37 13 60.5 41.5t23.5 65.5q0 56 -47 90t-132 34q-63 0 -145 -11v-479q70 -10 134 -10q92 0 147.5 40t55.5 116zM297 344h-48v125q27 3 50 3q71 0 71 -64t-73 -64zM249 269h50q85 0 85 -74q0 -67 -81 -67q-24 0 -54 3v138z" />
<glyph unicode="&#xe221;" d="M444 550h-197l-4 -21q48 -4 57 -14t1 -52l-63 -324q-8 -44 -19.5 -54.5t-56.5 -13.5l-6 -21h198l4 21q-47 3 -56 13.5t0 54.5l62 324q8 43 19.5 55.5t60.5 31.5z" />
<glyph unicode="&#xe222;" d="M450 0v50h-350v-50h350zM162 550h-60v-246q0 -81 22 -125q39 -79 150.5 -79t151.5 79q22 44 22 125v246h-60v-271q0 -47 -14 -75q-28 -52 -104 -52q-63 0 -90 48q-18 31 -18 79v271z" />
<glyph unicode="&#xe223;" d="M190 550l-189 -500h71l54 150h196l52 -150h74l-181 500h-77zM303 255h-157l80 221zM510 300l-94 -250h34l27 75h98l27 -75h37l-91 250h-38zM566 152h-79l40 111z" />
<glyph unicode="&#xe225;" d="M0 400v50h600v-50h-600zM0 300v50h600v-50h-600zM0 200v50h600v-50h-600zM0 550h600v-50h-600v50zM0 100v50h600v-50h-600z" />
<glyph unicode="&#xe226;" d="M100 400v50h400v-50h-400zM0 300v50h600v-50h-600zM100 200v50h400v-50h-400zM0 550h600v-50h-600v50zM0 100v50h600v-50h-600z" />
<glyph unicode="&#xe227;" d="M0 400v50h400v-50h-400zM0 300v50h600v-50h-600zM0 200v50h400v-50h-400zM0 550h600v-50h-600v50zM0 100v50h600v-50h-600z" />
<glyph unicode="&#xe228;" d="M600 400v50h-400v-50h400zM600 300v50h-600v-50h600zM600 200v50h-400v-50h400zM600 550h-600v-50h600v50zM600 100v50h-600v-50h600z" />
<glyph unicode="&#xe229;" d="M200 300v50h400v-50h-400zM200 500h400v-50h-400v50zM200 150v50h400v-50h-400zM0 400v100h100v-100h-100zM0 250v100h100v-100h-100zM0 100v100h100v-100h-100z" />
<glyph unicode="&#xe22a;" d="M350 400v50h250v-50h-250zM350 300v50h250v-50h-250zM350 200v50h250v-50h-250zM0 550h600v-50h-600v50zM0 100v50h600v-50h-600zM100 200v250l150 -125z" />
<glyph unicode="&#xe22b;" d="M350 400v50h250v-50h-250zM350 300v50h250v-50h-250zM350 200v50h250v-50h-250zM0 550h600v-50h-600v50zM0 100v50h600v-50h-600zM200 450v-250l-150 125z" />
<glyph unicode="&#xe22c;" d="M501 449v-50h-250v50h250zM251 299v50h350v-50h-350zM501 249v-50h-250v50h250zM251 549h350v-50h-350v50zM251 99v50h350v-50h-350zM201 449h-100v-250h100l-125 -150l-127 150h102v250h-102l127 150z" />
<glyph unicode="&#xe22d;" d="M202 350v150h150v-150h-150zM1 350v150h151v-150h-151zM202 150v150h150v-150h-150zM1 150v150h151v-150h-151zM402 500h150v-150h-150v150zM402 150v150h150v-150h-150z" />
<glyph unicode="&#xe22e;" d="M0 349v150h150v-150h-150zM0 149v150h150v-150h-150zM250 349v50h350v-50h-350zM250 249v50h350v-50h-350zM250 149v50h350v-50h-350zM250 499h350v-50h-350v50z" />
<glyph unicode="&#xe22f;" d="M0 400v-50h100v50h-100zM600 400h-450v-50h450v50zM0 300v-50h100v50h-100zM600 300h-450v-50h450v50zM0 200v-50h100v50h-100zM600 200h-450v-50h450v50zM0 500v-50h100v50h-100zM600 500h-450v-50h450v50z" />
<glyph unicode="&#xe230;" d="M0 350v50h600v-50h-600zM0 250v50h600v-50h-600zM0 150v50h600v-50h-600zM0 500h600v-50h-600v50z" />
<glyph unicode="&#xe231;" d="M0 250v-50h100v50h-100zM600 250h-400v-50h400v50zM0 150v-50h100v50h-100zM600 150h-400v-50h400v50zM600 300v200h-600v-200h600z" />
<glyph unicode="&#xe232;" d="M150 150v300h300v-300h-300zM500 150v300h50v-300h-50zM600 500h50v-400h-50v400zM50 150v300h50v-300h-50zM-50 100v400h50v-400h-50z" />
<glyph unicode="&#xe233;" d="M559 450h-259q-54 0 -95.5 -35t-51.5 -87l-90 156q42 54 104 85t133 31q82 0 151 -40.5t108 -109.5zM40 449l130 -224q20 -34 54.5 -54.5t75.5 -20.5q23 0 49 8l-90 -155q-110 15 -184.5 99.5t-74.5 197.5q0 79 40 149zM399 412h179q22 -53 22 -112q0 -124 -88 -212 t-212 -88l131 225l-1 1q20 34 20 74q0 68 -51 112zM300 412q47 0 80 -33t33 -79t-33.5 -79.5t-79.5 -33.5t-79 33t-33 80q0 46 33 79t79 33z" />
<glyph unicode="&#xe234;" />
<glyph unicode="&#xe235;" />
<glyph unicode="&#xe236;" d="M465 277h-86h-162q8 -54 43 -90t81 -36q31 0 58 17t44 46h134q-27 -73 -91.5 -118.5t-144.5 -45.5q-104 0 -178 74t-74 178q0 1 0.5 3t0.5 4q41 65 98 121q36 38 75 66q-77 -38 -162 -118q24 77 90.5 126.5t149.5 49.5q99 0 171 -67t80 -165q1 -6 1 -20q0 -17 -1 -25 h-127zM341 453q-43 0 -77 -32t-45 -81h244q-11 49 -44.5 81t-77.5 32zM434 536q-39 16 -81 17q65 33 117.5 36.5t82.5 -25.5q46 -47 12 -146q-1 3 -5 8.5t-5 8.5q23 70 -7 98q-33 33 -114 3zM224 79l18 -9q-61 -29 -110 -31t-78 26q-34 36 -23.5 101t59.5 143q0 -2 -0.5 -4 t-0.5 -3q0 -34 12 -77q-28 -52 -32.5 -92.5t15.5 -62.5q38 -38 140 9z" />
<glyph unicode="&#xe237;" d="M273 61q-106 0 -106 247q0 240 106 240q108 0 108 -239q0 -48 -3.5 -84.5t-13.5 -77.5t-33 -63.5t-58 -22.5zM273 596q-121 0 -197 -81t-76 -212q0 -121 77 -209.5t196 -88.5q121 0 199 88.5t78 209.5q0 131 -78 212t-199 81z" />
<glyph unicode="&#xe238;" d="M541 380h1v-123h-78zM297 415q23 0 36 -17.5t13 -47.5v-100q0 -31 -12 -48q-13 -17 -36 -17t-36 17t-13 48v100q0 31 12.5 48t35.5 17zM96 380h1v-123h-78zM-100 550h800v-500h-800v500zM185 216v41h-38v194h-51l-126 -204l1 -31h126v-67h50v67h38zM396 257v86 q0 52 -27 82t-71.5 30t-71.5 -30t-27 -82v-86q0 -52 27 -82t72 -30t71.5 30t26.5 82zM630 216v41h-38v194h-51l-126 -204l1 -31h126v-67h50v67h38z" />
<glyph unicode="&#xe239;" d="M550 50v500h-500v-500h500z" />
<glyph unicode="&#xe23a;" d="M50 550h500v-350h-500v350zM50 50v50h500v-50h-500z" />
<glyph unicode="&#xe23b;" d="M200 550v-200h-200v200h200zM600 500v50h-350v-50h350zM600 350v50h-350v-50h350zM200 250v-200h-200v200h200zM600 200v50h-350v-50h350zM600 50v50h-350v-50h350z" />
<glyph unicode="&#xe23c;" d="M250 400v-200h-250v200h250zM350 350v50h250v-50h-250zM350 200v50h250v-50h-250zM0 550h600v-50h-600v50zM0 50v50h600v-50h-600z" />
<glyph unicode="&#xe23d;" d="M0 200v200h600v-200h-600zM0 50v50h600v-50h-600zM0 550h600v-50h-600v50z" />
<glyph unicode="&#xe23e;" d="M350 200v200h250v-200h-250zM250 400v-50h-250v50h250zM250 250v-50h-250v50h250zM0 550h600v-50h-600v50zM0 50v50h600v-50h-600z" />
<glyph unicode="&#xe23f;" d="M0 250v150h150v-150h-150zM0 50v150h150v-150h-150zM200 600h400v-550h-400v550zM0 450v150h150v-150h-150z" />
<glyph unicode="&#xe240;" d="M150 450v150h-150v-150h150zM350 450v150h-150v-150h150zM150 250v150h-150v-150h150zM350 250v150h-150v-150h150zM550 450v150h-150v-150h150zM550 250v150h-150v-150h150zM150 50v150h-150v-150h150zM350 50v150h-150v-150h150zM550 50v150h-150v-150h150z" />
<glyph unicode="&#xe241;" d="M150 349v250h-150v-250h150zM400 599h-200v-350h200v350zM600 449v150h-150v-150h150zM150 49v250h-150v-250h150zM200 49h200v150h-200v-150zM600 49v350h-150v-350h150z" />
<glyph unicode="&#xe242;" d="M250 200h-250v-150h250v150zM0 400v-150h350v150h-350zM150 600h-150v-150h150v150zM600 200h-300v-150h300v150zM600 250v150h-200v-150h200zM600 600h-400v-150h400v150z" />
<glyph unicode="&#xe243;" d="M600 350v250h-600v-250h600zM600 50v250h-600v-250h600z" />
<glyph unicode="&#xe244;" d="M0 600h600v-550h-600v550zM200 150l300 175l-300 175v-350z" />
<glyph unicode="&#xe245;" d="M500 600v-450h-550v450h550zM450 200v350h-450v-350h450zM550 400h100v-400h-550v100h450v300z" />
<glyph unicode="&#xe246;" d="M550 550h-500v-50h500v50zM600 600v-150h-600v150h600zM150 350h-100v-300h100v300zM200 400v-400h-200v400h200zM550 350h-250v-300h250v300zM600 400v-400h-350v400h350z" />
<glyph unicode="&#xe247;" d="M250 350v250h-250v-250h250zM550 350v250h-250v-250h250zM550 50v250h-250v-250h250zM250 50v250h-250v-250h250z" />
<glyph unicode="&#xe248;" d="M7 300l106 -106l-35 -35l-141 141l141 141l35 -35zM593 300l-106 106l35 35l141 -141l-141 -141l-35 35zM259 52l130 483l-48 13l-130 -483z" />
<glyph unicode="&#xe249;" d="M300 650q145 0 247.5 -102.5t102.5 -247.5t-102.5 -247.5t-247.5 -102.5t-247.5 102.5t-102.5 247.5t102.5 247.5t247.5 102.5zM300 0q124 0 212 88t88 212t-88 212t-212 88t-212 -88t-88 -212t88 -212t212 -88zM332 393q-41 0 -64.5 -26.5t-23.5 -66.5q0 -15 3 -27.5 t9 -22.5t13.5 -18.5t17.5 -13.5t21.5 -8t23.5 -3q31 0 57 11l10 -53q-32 -15 -81 -15q-45 0 -78.5 18t-51.5 51.5t-18 77.5q0 67 43 110t117 43q40 0 70 -13l-13 -55q-22 11 -55 11z" />
<glyph unicode="&#xe24a;" d="M400 200h200v-100h-600v100h200l32 227q-32 30 -32 73q0 41 29.5 70.5t70.5 29.5t70.5 -29.5t29.5 -70.5q0 -43 -32 -73zM50 0v50h500v-50h-500z" />
<glyph unicode="&#xe281;" d="M549 341q45 -15 73 -54t28 -87q0 -62 -44 -106t-106 -44h-200v150h100l-125 150l-125 -150h100v-150h-150q-62 0 -106 44t-44 106q0 49 29 88t74 54q-3 17 -3 33q0 72 51.5 123.5t123.5 51.5q77 0 129 -58q25 8 46 8q62 0 106 -44t44 -106q0 -2 -0.5 -5t-0.5 -4zM250 -50 v100h50v-100h-50z" />
<glyph unicode="&#xe282;" d="M275 350l125 -150h-100v-250h-50v250h-100zM549 341q45 -15 73 -54t28 -87q0 -62 -44 -106t-106 -44h-100v50h100q41 0 70.5 29.5t29.5 70.5q0 21 -8.5 40t-23.5 33t-35 21l-36 12l2 38q0 3 1 8q-1 40 -30 69t-70 29q-13 0 -30 -6l-31 -9l-22 23q-37 42 -92 42 q-52 0 -88.5 -36.5t-36.5 -88.5q0 -11 2 -24l9 -43l-42 -14q-31 -10 -50 -36t-19 -58q0 -41 29.5 -70.5t70.5 -29.5h50v-50h-50q-62 0 -106 44t-44 106q0 49 29 88t74 54q-3 17 -3 33q0 72 51.5 123.5t123.5 51.5q77 0 129 -58q25 8 46 8q62 0 106 -44t44 -106q0 -2 -0.5 -5 t-0.5 -4z" />
<glyph unicode="&#xe283;" d="M256 249l53 159l187 187l35 -35l-189 -189l36 -36l189 189l35 -35l-187 -187zM602 701l106 -106l-71 -71l-106 106zM177 170l265 89l160 159v-419h-600v600h427l-164 -164z" />
<glyph unicode="&#xe284;" d="M552 49v250l50 50v-350h-600v600l350 -1l-50 -49h-250v-500h500zM378 335l189 189l35 -35l-187 -187l-159 -53l53 159l187 187l35 -35l-189 -189zM602 701l106 -106l-71 -71l-106 106z" />
<glyph unicode="&#xe285;" d="M225 550q77 0 129 -58q25 8 46 8q62 0 106 -44t44 -106q0 -2 -0.5 -5t-0.5 -4q45 -15 73 -54t28 -87q0 -41 -20 -75.5t-54.5 -54.5t-75.5 -20h-400q-62 0 -106 44t-44 106q0 49 29 88t74 54q-3 17 -3 33q0 72 51.5 123.5t123.5 51.5z" />
<glyph unicode="&#xe286;" d="M225 500q-52 0 -88.5 -36.5t-36.5 -88.5q0 -11 2 -24l9 -43l-42 -14q-31 -10 -50 -36t-19 -58q0 -41 29.5 -70.5t70.5 -29.5h400q41 0 70.5 29.5t29.5 70.5q0 21 -8.5 40t-23.5 33t-35 21l-36 12l2 38q0 3 1 8q-1 40 -30 69t-70 29q-13 0 -30 -6l-31 -9l-22 23 q-37 42 -92 42zM225 550q77 0 129 -58q25 8 46 8q62 0 106 -44t44 -106q0 -2 -0.5 -5t-0.5 -4q45 -15 73 -54t28 -87q0 -41 -20 -75.5t-54.5 -54.5t-75.5 -20h-400q-62 0 -106 44t-44 106q0 49 29 88t74 54q-3 17 -3 33q0 72 51.5 123.5t123.5 51.5z" />
<glyph unicode="&#xe287;" d="M600 100v400h-600v-400h600z" />
<glyph unicode="&#xe288;" d="M550 450h-500v-300h500v300zM600 500v-400h-600v400h600z" />
<glyph unicode="&#xe289;" d="M100 0h400v600h-400v-600z" />
<glyph unicode="&#xe28a;" d="M450 50v500h-300v-500h300zM500 0h-400v600h400v-600z" />
<glyph unicode="&#xe28b;" d="M126 150q31 0 53 -22t22 -53t-22 -53t-53 -22t-53 22t-22 53q0 20 10 37.5t27.5 27.5t37.5 10zM101 450h438l-50 -200h-438v300h-50v50h100v-150zM451 300l25 100h-375v-100h350zM426 150q31 0 53 -22t22 -53q0 -20 -10 -37.5t-27 -27.5t-38 -10q-31 0 -53 22t-22 53 q0 20 10 37.5t27.5 27.5t37.5 10z" />
<glyph unicode="&#xe28c;" d="M176.5 150q20.5 0 37.5 -10t27 -27.5t10 -37.5q0 -31 -22 -53t-53 -22t-53 22t-22 53q0 20 10 37.5t27.5 27.5t38 10zM451 600l-150 -150l-150 150h100v100h100v-100h100zM151 400h388l-50 -200h-388v250h-50v50h100v-100zM451 250l25 100h-325v-100h300zM426 150 q31 0 53 -22t22 -53t-22 -53t-53 -22t-53 22t-22 53q0 20 10 37.5t27.5 27.5t37.5 10z" />
<glyph unicode="&#xe28d;" d="M-50 550h700v-500h-700v500zM400 350l200 -200v350h-600v-400l150 150l75 -75z" />
<glyph unicode="&#xe290;" d="M350 300h100l-125 -150l-125 150h100v250h50v-250zM0 50h650v-50h-650v50z" />
<glyph unicode="&#xe291;" d="M609 17l-36 -36l-124 125q-71 -57 -158 -57q-103 0 -176.5 73t-73.5 176.5t73.5 177t177 73.5t176.5 -73.5t73 -176.5q0 -87 -57 -158zM91 299q0 -83 58.5 -141.5t141.5 -58.5q54 0 100.5 26.5t73 73t26.5 100.5t-26.5 100t-73 73t-100.5 27q-83 0 -141.5 -58.5 t-58.5 -141.5z" />
<glyph unicode="&#xe292;" d="M150 400h50v-250h-50v250zM350 400h50v-250h-50v250zM350 550h150v-50h-450v50h150v50h150v-50zM450 50v400h50v-450h-450v450h50v-400h350zM250 400h50v-250h-50v250z" />
<glyph unicode="&#xe293;" d="M615 550h35v-35v-438v-27h-27h-646h-27v27v438v35h35h630zM565 500h-530l169 -169l27 -27l69 -68l69 68l27 27zM0 465v-338l169 169zM27 100h546l-169 169l-104 -105l-104 105zM600 127v338l-169 -169z" />
<glyph unicode="&#xe294;" d="M0 550h600v-50h-600v50zM0 300v50h600v-50h-600zM0 100v50h600v-50h-600z" />
<glyph unicode="&#xe295;" d="M250 100v250h100v-250h-100zM300 505q15 0 27.5 -7.5t20 -20t7.5 -27.5q0 -23 -16 -39t-39 -16t-39 16t-16 39t16 39t39 16zM300 650q145 0 247.5 -102.5t102.5 -247.5t-102.5 -247.5t-247.5 -102.5t-247.5 102.5t-102.5 247.5t102.5 247.5t247.5 102.5zM300 0 q124 0 212 88t88 212t-88 212t-212 88t-212 -88t-88 -212t88 -212t212 -88z" />
<glyph unicode="&#xe298;" d="M48 364h23q14 0 21 -7q8 -8 8 -20t-7.5 -18.5t-21.5 -6.5h-23v52zM272 337l18 -62h-38zM-100 500h800v-400h-800v400zM111 200l48 3q-6 4 -8.5 14t-2.5 18v13q0 18 -8 30t-26 17q16 7 24 18q8 12 8 27q0 28 -20 44t-55 16h-70v-200h47v77h24q15 0 22.5 -7.5t7.5 -22.5 v-12q0 -9 2 -20q1 -11 7 -15zM313 200h49l-66 200h-25v0h-25l-65 -200h49l12 39h59zM563 200l46 200h-47l-24 -130h-1l-34 130h-35l-34 -130h-1l-24 130h-47l46 -200h43l34 123h1l33 -123h44z" />
<glyph unicode="&#xe299;" d="M-100 500h800v-400h-800v400zM259 227v80h-83v-31h36v-36q-5 -4 -12 -6t-20 -2q-18 0 -28 13t-10 34v42q0 21 10 34t27 13q16 0 23.5 -7.5t7.5 -21.5h44h1q0 30 -19.5 47.5t-58.5 17.5q-36 0 -58.5 -23t-22.5 -60v-42q0 -37 23 -60t61 -23q30 0 49 9t30 22zM346 199v202 h-47v-202h47zM524 365v36h-134v-202h46v81h74v36h-74v49h88z" />
<glyph unicode="&#xe29a;" d="M66 365h30q16 0 24 -8.5t8 -22.5q0 -13 -8 -21.5t-24 -8.5h-30v61zM-100 500h800v-400h-800v400zM153 286.5q21 18.5 21 48t-21 48t-57 18.5h-77v-202h47v69h30q36 0 57 18.5zM378 199v202h-47v-127h-1l-74 127h-46v-202h46v127h1l74 -127h47zM583 227v80h-83v-31h36v-36 q-5 -4 -12.5 -6t-19.5 -2q-18 0 -28 13t-10 34v42q0 21 10 34t26 13t24 -7.5t8 -21.5h44q1 30 -18.5 47.5t-58.5 17.5q-36 0 -59 -23t-23 -60v-42q0 -37 23.5 -60t61.5 -23q30 0 49 9t30 22z" />
<glyph unicode="&#xe29b;" d="M-100 500h800v-400h-800v400zM164 364v36h-151v-36h52v-164h46v164h53zM241 200v200h-46v-200h46zM418 364v36h-134v-200h47v80h73v36h-73v48h87zM583 364v36h-133v-200h46v80h73v36h-73v48h87z" />
<glyph unicode="&#xe29c;" d="M-100 500h800v-400h-800v400zM112 200h56l-62 100l57 99h-53l-33 -67l-32 67h-53l57 -99l-58 -100h53l34 68zM407 200v199h-61l-45 -139h-1l-44 139h-61v-199h46v126h1l43 -126h31l44 128h1v-128h46zM581 286q21 18 21 47.5t-21 47.5t-56 18h-76v-199h46v68h30 q35 0 56 18zM495 364h30q15 0 22.5 -8.5t7.5 -22.5q0 -13 -7.5 -21t-22.5 -8h-30v60z" />
<glyph unicode="&#xe300;" d="M500 275v100q-56 0 -107.5 -13t-85 -31.5t-59 -36.5t-36.5 -31l-12 -13q1 5 3.5 14t12.5 35t23.5 49.5t38 52.5t54 50t73.5 35t95 14v100l200 -162zM500 200l100 82v-232h-600v450h267q-61 -38 -104 -100h-63v-250h400v50z" />
<glyph unicode="&#xe301;" d="M200 250v114l113 -114h-113zM500 650l100 -100l-250 -250l-100 100zM500 375l100 100v-425h-600v450h275l-100 -100h-75v-250h400v225z" />
<glyph unicode="&#xe302;" d="M549 341q45 -15 73 -54t28 -87q0 -62 -44 -106t-106 -44h-400q-62 0 -106 44t-44 106q0 49 29 88t74 54q-3 17 -3 33q0 72 51.5 123.5t123.5 51.5q77 0 129 -58q25 8 46 8q62 0 106 -44t44 -106q0 -2 -0.5 -5t-0.5 -4zM350 250h100l-150 150l-150 -150h100v-100h100v100z " />
<glyph unicode="&#xe303;" d="M350 400h150l-200 -200l-200 200h150v200h100v-200zM0 100h600v-50h-600v50z" />
<glyph unicode="&#xe304;" d="M289 538l254 -253q13 -13 0 -25l-203 -203q-12 -13 -25 0l-253 253q-12 12 -12 31v167q0 18 12 30t30 12h167q18 0 30 -12zM186 414q14 14 14 35t-14 35q-15 15 -35.5 15t-35.5 -15q-14 -14 -14 -35t14 -35q15 -14 35.5 -14t35.5 14z" />
<glyph unicode="&#xe305;" d="M289 588l253 -252q12 -12 0 -25l-202 -203q-13 -13 -26 0l-252 253q-12 12 -12 31v167q0 17 12 29t29 12h167q19 0 31 -12zM185 465q14 14 14 35t-14 35q-15 15 -35.5 15t-35.5 -15q-14 -14 -14 -35t14 -35q15 -14 35.5 -14t35.5 14zM515 213l28 -28q13 -13 0 -25 l-203 -203q-12 -13 -25 0l-253 254q-12 12 -12 31v60l229 -229q20 -20 48 -20t48 20z" />
<glyph unicode="&#xe306;" d="M324 600q134 0 229.5 -73.5t95.5 -176.5t-95.5 -176.5t-229.5 -73.5q-30 0 -65 5q-58 -53 -149 -74q34 49 34 110v1q-55 28 -92 71t-48 94q-5 23 -5 43q0 36 12 69q30 80 116 130.5t197 50.5z" />
<glyph unicode="&#xe307;" d="M643 239q7 -18 7 -42q0 -10 -2 -28q-15 -64 -87 -101v-1q0 -35 21 -67q-57 12 -91 46q-19 -4 -40 -4q-106 0 -167 68h3q109 0 196 51.5t122 132.5q27 -27 38 -55zM287 600q118 0 201.5 -64.5t83.5 -155.5t-83.5 -155t-201.5 -64q-35 0 -57 5q-49 -46 -132 -66 q30 41 30 96v2q-48 24 -80.5 62t-42.5 82q-5 15 -5 38q0 29 11 62q27 69 103 113.5t173 44.5z" />
<glyph unicode="&#xe308;" d="M-50 515l219 -219l-219 -219v438zM231 304l-27 27l-219 219h630l-219 -219l-27 -27l-69 -68zM650 77l-219 219l219 219v-438zM300 164l104 105l219 -219h-646l219 219z" />
<glyph unicode="&#xe309;" d="M-50 514l219 -219l-219 -219v438zM431 295l219 219v-438zM300 164l104 104l219 -219h-646l219 219zM300 670l-269 -166l-37 36l306 189l306 -189l-37 -36z" />
<glyph unicode="&#xe30a;" d="M400 400h200q21 0 35.5 -14.5t14.5 -35.5v-100q0 -21 -14.5 -35.5t-35.5 -14.5h-200q-21 0 -35.5 14.5t-14.5 35.5h-100q0 -21 -14.5 -35.5t-35.5 -14.5h-200q-21 0 -35.5 14.5t-14.5 35.5v100q0 21 14.5 35.5t35.5 14.5h200q21 0 35.5 -14.5t14.5 -35.5h100 q0 21 14.5 35.5t35.5 14.5zM0 250h150v100h-150v-100zM600 250v100h-150v-100h150z" />
<glyph unicode="&#xe30b;" d="M275 650q51 0 88 -36.5t37 -88.5v-375h-50v375q0 31 -22 53t-53 22t-53 -22t-22 -53v-425h-50v425q0 52 36.5 88.5t88.5 36.5zM275 450q31 0 53 -22t22 -53v-275q0 -41 -29.5 -70.5t-70.5 -29.5q-42 0 -71 29.5t-29 70.5h50q0 -20 14.5 -35t35.5 -15q20 0 35 15t15 35 v275q0 10 -7.5 17.5t-17.5 7.5q-11 0 -18 -7t-7 -18v-225h-50v225q0 31 22 53t53 22z" />
<glyph unicode="&#xe30c;" d="M450 275q0 10 -7.5 17.5t-17.5 7.5h-300q-11 0 -18 -7t-7 -18t7 -18t18 -7h300q10 0 17.5 7.5t7.5 17.5zM375 300l-25 250h-150l-25 -250h200zM275 0l25 50v150h-50v-150zM400 575q0 10 -7.5 17.5t-17.5 7.5h-200q-11 0 -18 -7t-7 -18t7 -18t18 -7h200q10 0 17.5 7.5 t7.5 17.5z" />
<glyph unicode="&#xe30d;" d="M200 650v-150h-50v150h50zM450 650v-150h-50v150h50zM500 600h100v-600h-600v600h100v-50h-50v-150h500v150h-50v50zM100 300v50h-50v-50h50zM200 300v50h-50v-50h50zM300 300v50h-50v-50h50zM400 300v50h-50v-50h50zM500 300v50h-50v-50h50zM500 200v50h-50v-50h50z M400 200v50h-50v-50h50zM300 200v50h-50v-50h50zM200 200v50h-50v-50h50zM100 200v50h-50v-50h50zM100 100v50h-50v-50h50zM200 100v50h-50v-50h50zM300 100v50h-50v-50h50zM400 100v50h-50v-50h50zM350 600v-50h-100v50h100z" />
<glyph unicode="&#xe30e;" d="M276 586q-109 0 -186 -76.5t-77 -185.5t77 -186t186 -77q108 0 185 77t77 186t-77 185.5t-185 76.5zM276 649q134 0 229.5 -95.5t95.5 -229.5t-95.5 -229.5t-229.5 -95.5q-135 0 -231 95.5t-96 229.5t96 229.5t231 95.5zM276 549l50 -250q0 -21 -15 -35.5t-35 -14.5 q-21 0 -35.5 14.5t-14.5 35.5zM551 324l-300 -50q-21 0 -35.5 14.5t-14.5 35.5t14.5 35.5t35.5 14.5z" />
<glyph unicode="&#xe30f;" d="M600 300v-1v4v-3zM590 225q-25 -98 -105.5 -161.5t-184.5 -63.5q-124 0 -212 88t-88 212q0 118 79 203q-1 -3 -6.5 -16t-10.5 -22q-6 -10 -9 -20.5t-5.5 -25.5t-3.5 -18q-4 -23 8 -62q1 -6 6 -2q2 3 3.5 3.5t4.5 -1.5q3 -3 3 -6.5t-1.5 -7t-1.5 -5.5q0 -4 26 -22 q6 -4 8.5 -5t3.5 -1.5t3 0.5t5 1q6 1 9.5 -6t8.5 -10q24 -11 28 -15q1 -1 3.5 -5.5t6 -7t8.5 -3.5q6 0 11.5 -5t10.5 -3t6 4.5t3 3.5t3.5 -3t2.5 -11.5t2 -11.5q2 -6 -7 -16.5t-10 -13.5q-1 -2 0 -11v-9q0 -2 20 -25q30 -34 35 -39q3 -2 15 -6.5t15 -7.5q8 -9 4 -38 q-1 -4 0 -8t1 -6q-3 -12 0 -23q1 -4 6.5 -7.5t11.5 -5.5l5 -1q17 10 22 18q7 10 23 12q6 1 13 8.5t9 8.5q11 6 30 28q1 1 3 6.5t5.5 10t10.5 7.5q17 9 28 25q4 5 7 20t7 18q6 5 9.5 23.5t-1.5 24.5q-5 5 -9.5 4.5t-9.5 0.5q-5 2 -11.5 -1t-14.5 -3q-7 0 -13 1t-13.5 4.5 t-9.5 4.5q-6 2 -13.5 14t-12.5 12q-18 2 -33 5q-6 2 -15.5 10.5t-11.5 8.5q-3 0 -6.5 -1t-9 -2t-9.5 -2q-14 -4 -16 6q-4 3 -6.5 3t-11 -2.5t-9.5 -2.5q-5 0 -13.5 -6t-8.5 -9q-3 -10 -16 -4q-6 3 -20 -2q-2 -1 -6 3t-5 7q-1 2 0.5 6t1.5 5q0 3 -3 10.5t-6 8.5h-14 q-6 0 -3 16q8 20 2 23q-3 2 -18 -3q-3 0 -5.5 -6.5t-7.5 -8.5q-5 -3 -11.5 4t-8.5 14q-1 3 1.5 12.5t2.5 12.5q0 6 8 12.5t14 8.5q5 1 11.5 -0.5t7.5 -1.5q2 1 2.5 4.5t1.5 4.5q0 2 7.5 0.5t10.5 -1.5q7 1 7 -16q0 -11 11 -17q1 0 2.5 3t2 7t0.5 7t-2.5 14t-2.5 14 q0 4 14 13t16 13t5 13.5t7 15.5q3 6 7 5l4 -1q1 1 1.5 7.5t2.5 9.5t7.5 2.5t9.5 -1t5 1.5t9 11q6 6 4 6q-5 -3 -9.5 0.5t-4.5 6.5q0 1 2.5 1.5t6.5 1.5t7 3t4 -4l2 -5q1 3 14.5 1t14.5 0q3 3 -1 9.5t-9 6.5q-7 0 -7 8q0 4 -11.5 7.5t-12.5 5.5q-2 5 -9.5 10t-10.5 1 q-3 -8 -8 2q-1 1 -1 3q0 4 -8 9t-14 4t-8.5 -8t0.5 -11q2 -4 0.5 -12t-5.5 -12q-3 -3 -3.5 -9.5t-2.5 -6.5q-4 -1 -3 13v2v2q0 4 -14.5 3t-15.5 1t7.5 8.5t8.5 10.5q0 3 3 4.5t9 2.5h7q9 3 9 11q0 3 -2 3q-3 1 -10.5 5.5t-10.5 5.5q-5 1 -6.5 1t-5.5 -2t-7 -3q19 9 37 15 q-2 -1 -4 -3q0 -2 8 -2.5t16.5 1t10.5 3.5t5 2t8.5 -1t8.5 -1q4 0 9.5 -7.5t9.5 -9.5q3 -1 9 -7.5t14 -8.5q7 -2 10.5 -1t5.5 3l1 3q-5 7 7 26q2 7 1 8t-8 1q-3 0 -5 1t-5.5 3t-7.5 4q39 0 80 -11q16 -8 18 -10q5 -4 7 -15q4 -13 15 -14q16 -2 24 -8q4 -3 7 1t9 2 q20 -8 24 -17q1 -3 -1 -4t-11 -2q-8 -3 -8 -4q1 -1 9 -14.5t12 -14.5q17 0 17 -8q0 -13 5 -23q6 -10 5 -16q-1 -8 1 -30q0 -4 8 -17.5t8 -19.5q0 -27 10 -32q7 -4 9 -7.5t6 -6.5q3 -3 6.5 -8.5t4.5 -6t5 1.5q10 14 16 20q3 3 5 -10q5 -30 1 -55zM598 267q0 4 1 6 q-1 -2 -1 -6zM593 237l1 2v3q0 -3 -1 -5z" />
<glyph unicode="&#xe310;" d="M325 550q-94 0 -159.5 -66t-65.5 -159t65.5 -159t159.5 -66q93 0 159 66t66 159t-66 159t-159 66zM325 625q124 0 212 -88t88 -212t-88 -212t-212 -88q-125 0 -212.5 87.5t-87.5 212.5q0 124 88 212t212 88zM350 450v100h-50v-100h50zM350 100v100h-50v-100h50zM200 350 h-100v-50h100v50zM550 350h-100v-50h100v50z" />
<glyph unicode="&#xe311;" d="M125 300q0 31 -22 53t-53 22t-53 -22t-22 -53t22 -53t53 -22t53 22t22 53zM375 300q0 31 -22 53t-53 22t-53 -22t-22 -53t22 -53t53 -22t53 22t22 53zM625 300q0 31 -22 53t-53 22t-53 -22t-22 -53t22 -53t53 -22t53 22t22 53z" />
<glyph unicode="&#xe312;" d="M300 600q75 0 137.5 -62.5t62.5 -137.5q0 -44 -50 -144t-100 -178l-50 -78q-22 34 -55.5 86.5t-89 161t-55.5 152.5q0 75 62.5 137.5t137.5 62.5zM300 300q38 0 69 31t31 69t-31 69t-69 31t-69 -31t-31 -69t31 -69t69 -31z" />
<glyph unicode="&#xe313;" d="M349 450v-100h100v-100h-100v-99h-100v99h-100v100h100v100h100zM643 45l-88 -89l-93 93q-71 -48 -163 -48q-124 0 -212 87.5t-88 211.5t88 212t212 88q125 0 212.5 -88t87.5 -212q0 -88 -48 -163zM49 300q0 -103 73.5 -176t176.5 -73t176.5 73t73.5 176q0 104 -73.5 177 t-176.5 73t-176.5 -73.5t-73.5 -176.5z" />
<glyph unicode="&#xe314;" d="M148 250v100h300v-100h-300zM642 44l-88 -88l-93 92q-74 -48 -163 -48q-124 0 -212 88t-88 212t88 212t212 88t212 -88t88 -212q0 -89 -48 -163zM48 300q0 -103 73.5 -176.5t176.5 -73.5q104 0 177 73t73 177q0 103 -73.5 176.5t-176.5 73.5t-176.5 -73.5t-73.5 -176.5z " />
<glyph unicode="&#xe315;" d="M600 100l-100 -100l-124 135q-59 -35 -126 -35q-104 0 -177 73t-73 177t73 177t177 73t177 -73t73 -177q0 -67 -35 -126zM75 350q0 -72 51.5 -123.5t123.5 -51.5t123.5 51.5t51.5 123.5t-51.5 123.5t-123.5 51.5t-123.5 -51.5t-51.5 -123.5z" />
<glyph unicode="&#xe316;" d="M300 550q103 0 176.5 -22t73.5 -53q0 -11 -50 -67.5t-100 -107.5l-50 -50v-200h-100v200q-200 200 -200 225q0 31 73.5 53t176.5 22zM300 462q116 0 195 25q-73 25 -195 25t-195 -25q79 -25 195 -25z" />
<glyph unicode="&#xe317;" d="M650 250l-325 300l-325 -300h650zM100 250h450v-250h-150v200h-150v-200h-150v250z" />
<glyph unicode="&#xe318;" d="M450 0v600h-300v-600l150 150z" />
<glyph unicode="&#xe319;" d="M125 300q0 31 -22 53t-53 22t-53 -22t-22 -53t22 -53t53 -22t53 22t22 53zM375 300q0 31 -22 53t-53 22t-53 -22t-22 -53t22 -53t53 -22t53 22t22 53zM625 300q0 31 -22 53t-53 22t-53 -22t-22 -53t22 -53t53 -22t53 22t22 53z" />
<glyph unicode="&#xe31a;" d="M126.5 150q20.5 0 37.5 -10t27 -27.5t10 -37.5q0 -31 -22 -53t-53 -22t-53 22t-22 53q0 20 10 37.5t27.5 27.5t38 10zM101 450h438l-50 -200h-438v300h-50v50h100v-150zM426 150q31 0 53 -22t22 -53t-22 -53t-53 -22t-53 22t-22 53q0 20 10 37.5t27.5 27.5t37.5 10z" />
<glyph unicode="&#xe31b;" d="M176.5 150q20.5 0 37.5 -10t27 -27.5t10 -37.5q0 -31 -22 -53t-53 -22t-53 22t-22 53q0 20 10 37.5t27.5 27.5t38 10zM451 600l-150 -150l-150 150h100v100h100v-100h100zM151 400h388l-50 -200h-388v250h-50v50h100v-100zM426 150q31 0 53 -22t22 -53t-22 -53t-53 -22 t-53 22t-22 53q0 20 10 37.5t27.5 27.5t37.5 10z" />
<glyph unicode="&#xe31c;" d="M-50 350h700v-300h-700v300zM100 150v50h-100v-50h100zM300 150v50h-150v-50h150zM650 550v-100h-700v100h700z" />
<glyph unicode="&#xe31d;" d="M370 306q26 -20 26 -56q0 -49 -36 -71q-21 -13 -51 -15v-39h-19v38q-37 4 -56 17q-33 22 -32 75h52q2 -24 7 -33q7 -12 29 -16v82l-15 4q-37 11 -52 30t-15 46q0 18 6 32.5t16 25.5q14 13 31 19q10 3 29 5v25h19v-26q31 -2 49 -15q32 -21 33 -67h-50q-2 17 -6 25 q-7 14 -26 15v-73q45 -16 61 -28zM290 339v68q-16 -1 -24 -9.5t-8 -22.5q0 -17 12 -26q6 -5 20 -10zM331 213q12 9 12 31q0 16 -11 26q-7 5 -23 11v-75q15 2 22 7zM525 350q21 0 35.5 -14.5t14.5 -35.5q0 -14 -6.5 -25.5t-18 -18t-25.5 -6.5q-21 0 -35.5 14.5t-14.5 35.5 t14.5 35.5t35.5 14.5zM75 350q21 0 35.5 -14.5t14.5 -35.5t-14.5 -35.5t-35.5 -14.5q-14 0 -25.5 6.5t-18 18t-6.5 25.5q0 21 14.5 35.5t35.5 14.5zM602 550h98v-79v-342v-79h-98h-604h-98v79v342v79h98h604zM-4 100h608q13 41 46 49v302q-33 8 -46 49h-608q-13 -41 -46 -49 v-302q16 -4 28 -17t18 -32z" />
<glyph unicode="&#xe31e;" d="M50 300h200v-300h-200v300zM350 300h200v-300h-200v300zM346 450h-45q6 52 30 101t55 49q47 0 80.5 -33.5t33.5 -80.5q0 -18 -20 -36h-112q103 27 116 40q-3 26 -35 55.5t-59 32.5q-20 -20 -44 -128zM232 450h-112q-20 18 -20 36q0 47 33.5 80.5t80.5 33.5q31 0 55 -49 t30 -101h-45q-24 107 -43 128q-27 -3 -58 -32.5t-34 -55.5q14 -14 113 -40zM250 450v-100h-250v100h250zM350 450h250v-100h-250v100z" />
<glyph unicode="&#xe31f;" d="M600 50v-50h-600v50l214 91l-1 36q-25 36 -30 86q-3 0 -12.5 22.5t-15.5 45.5t-1 24t10 -2.5t7 -6.5l2 -4q-11 41 -11 88q0 29 28.5 63.5t63.5 37.5q26 3 29 19q9 -3 15.5 -6t9 -4t4.5 -2t6.5 -2t9.5 -2t18 -3q22 -4 39.5 -15.5t28 -26.5t15.5 -30.5t5 -28.5 q0 -21 -1.5 -43t-3.5 -34l-2 -11q1 1 2.5 4t6.5 6.5t10 2.5t-1 -24t-15.5 -45.5t-12.5 -22.5q-2 -14 -5.5 -28t-7.5 -24t-7.5 -18t-6.5 -12l-2 -4l-2 -36z" />
<glyph unicode="&#xe320;" d="M-43 50h624q-1 3 0.5 17t-7 34t-26.5 26q-28 9 -74 21.5t-78 19.5l-32 8l-13 35q3 6 7.5 16t12 33t7.5 36q2 -1 6 0t12.5 18.5t14.5 52.5q1 14 -5 17t-17 -9l1 5l2.5 15t2 21t-1 26t-4.5 27.5t-11 26.5t-19.5 24t-30 18.5t-41.5 10.5q-4 1 -17.5 1t-17.5 -1 q-23 -3 -41.5 -10.5t-30 -18.5t-19.5 -24t-11 -26.5t-4.5 -27.5t-1 -26t2 -21l2.5 -15l1 -5q-11 12 -17 9t-5 -17q6 -35 14.5 -52.5t13.5 -18.5h5q0 -13 6.5 -34.5t13.5 -35.5l7 -15l-12 -35q-122 -28 -185 -49q-18 -6 -26.5 -25.5t-8.5 -35.5zM670 239q13 -5 19.5 -14.5 t6.5 -16.5l-1 -8h-131q-3 0 -10.5 -4.5t-11.5 -3.5q-20 7 -67.5 10.5t-63.5 7.5q8 23 10 33q2 2 4 6l32 8l9 25q-8 17 -14 34q2 9 3 15v3v3q3 33 -15 53q2 27 -6 56q5 77 80 86h25q81 -10 79 -94q0 -25 -4 -34q5 6 9 6.5t6 -2.5t2 -10q-4 -25 -10.5 -38t-10.5 -13h-4 q0 -10 -4.5 -25t-9.5 -25l-5 -10l8 -21q29 -12 75 -27z" />
<glyph unicode="&#xe321;" d="M625 273l-101 -25q-9 -36 -29 -69l54 -89l-38 -39l-90 54q-34 -21 -69 -28l-25 -102h-54l-25 102q-35 7 -69 28l-90 -54l-38 39l54 89q-20 33 -29 69l-101 25v54l101 26q9 35 29 68l-54 90l38 38l90 -54q33 20 69 29l25 101h54l25 -101q36 -9 69 -29l90 54l38 -38 l-54 -90q20 -33 29 -68l101 -26v-54zM300 200q41 0 70.5 29.5t29.5 70.5t-29.5 70.5t-70.5 29.5t-70.5 -29.5t-29.5 -70.5t29.5 -70.5t70.5 -29.5z" />
<glyph unicode="&#xe322;" d="M125 300q0 31 -22 53t-53 22t-53 -22t-22 -53t22 -53t53 -22t53 22t22 53zM375 300q0 31 -22 53t-53 22t-53 -22t-22 -53t22 -53t53 -22t53 22t22 53zM625 300q0 31 -22 53t-53 22t-53 -22t-22 -53t22 -53t53 -22t53 22t22 53z" />
<glyph unicode="&#xe323;" d="M525 450l75 75v-113l-75 -62h-100l-300 -350h-50l-75 75v50l350 300v95l62 80h113l-75 -75v-53l22 -22h53zM100 62q10 0 18.5 5.5t14 14t5.5 18.5q0 16 -11 27t-27 11t-27 -11t-11 -27t11 -27t27 -11z" />
<glyph unicode="&#xe324;" d="M350 550h150v-50h-450v50h150v50h150v-50zM50 0v450h450v-450h-450zM350 350v-250h50v250h-50zM250 350v-250h50v250h-50zM150 350v-250h50v250h-50z" />
<glyph unicode="&#xe325;" d="M0 500h600v-450h-600v450zM200 600l50 -50h-200v50h150z" />
<glyph unicode="&#xe326;" d="M200 400h500l-200 -350h-500v450h50v100h150l100 -100h300v-50h-500l-50 -312z" />
<glyph unicode="&#xe327;" d="M200 600l50 -50h-200v50h150zM600 200h100v-200h-100v-100h-200v100h-100v50h-300v450h600v-200v-50v-50zM650 50v100h-100v100h-100v-100h-100v-100h100v-100h100v100h100z" />
<glyph unicode="&#xe328;" d="M200 600l50 -50h-200v50h150zM600 200h100v-200h-100h-200h-100v50h-300v450h600v-300zM650 50v100h-50h-50h-100h-100v-100h300z" />
<glyph unicode="&#xe329;" d="M0 500h600v-450h-600v450zM550 100v350h-500v-350h500zM200 600l50 -50h-200v50h150z" />
<glyph unicode="&#xe32a;" d="M-50 550h700v-500h-700v500zM600 100v50l-200 200l-175 -175l-75 75l-150 -150h600z" />
<glyph unicode="&#xe32b;" d="M50 450v50h500v-400h-50v350h-450zM150 600h500v-400h-50v350h-450v50zM-50 0v400h500v-400h-500zM100 150l-100 -100h400v100l-100 100l-150 -150z" />
<glyph unicode="&#xe32c;" d="M350 400h200v-400h-500v600h300v-200zM400 600l150 -150h-150v150z" />
<glyph unicode="&#xe32d;" d="M450 500h150v-350h-150v250l-200 200v50h200v-150zM500 650l100 -100h-100v100zM200 300h200v-300h-400v500h200v-200zM250 500l150 -150h-150v150z" />
<glyph unicode="&#xe32e;" d="M-50 550h700v-500h-700v500zM600 100v400h-600v-400h600zM200 450l250 -150l-250 -150v300z" />
<glyph unicode="&#xe32f;" d="M300 650q145 0 247.5 -102.5t102.5 -247.5t-102.5 -247.5t-247.5 -102.5t-247.5 102.5t-102.5 247.5t102.5 247.5t247.5 102.5zM300 0q124 0 212 88t88 212t-88 212t-212 88t-212 -88t-88 -212t88 -212t212 -88zM200 150v300l250 -150z" />
<glyph unicode="&#xe330;" d="M150 200q31 0 53 -22t22 -53t-22 -53t-53 -22t-53 22t-22 53t22 53t53 22zM75 300v50q124 0 212 -88t88 -212h-50q0 103 -73.5 176.5t-176.5 73.5zM75 450v50q186 0 318 -132t132 -318h-50q0 165 -117.5 282.5t-282.5 117.5z" />
<glyph unicode="&#xe331;" d="M600 600v-600h-600v600h600zM150 75q31 0 53 22t22 53t-22 53t-53 22t-53 -22t-22 -53t22 -53t53 -22zM300 100h50q0 103 -73.5 176.5t-176.5 73.5v-50q83 0 141.5 -58.5t58.5 -141.5zM450 100h50q0 166 -117 283t-283 117v-50q145 0 247.5 -102.5t102.5 -247.5z" />
<glyph unicode="&#xe332;" d="M0 100v250h100v-250h-100zM150 100v400h100v-400h-100zM300 100v150h100v-150h-100zM450 400h100v-300h-100v300z" />
<glyph unicode="&#xe333;" d="M250 300h350v-200h-350v200zM550 550l-175 -200l-175 200h100v100h150v-100h100zM0 100v200h200v-200h-200zM150 450v-50h50v-50h-200v50h50v50h100zM0 0v50h200v-50h-200z" />
<glyph unicode="&#xe334;" d="M300 531l-59 -181h-191l155 -109l-60 -178l155 112l155 -113l-60 179l155 109h-191z" />
<glyph unicode="&#xe335;" d="M300 178l-155 -112l59 178l-154 109h191l59 181v-356z" />
<glyph unicode="&#xe336;" d="M0 50v300h150v-300h-150zM600 350q14 0 18.5 -31t-0.5 -75t-14.5 -88t-24.5 -75t-29 -31h-350v300q50 150 50 200q1 18 43.5 16t56.5 -16q16 -16 16 -66t-8 -92l-8 -42h250z" />
<glyph unicode="&#xe337;" d="M0 463v-300h150v300h-150zM600 163q14 0 18.5 31t-0.5 75t-14.5 88t-24.5 75t-29 31h-350v-300q50 -150 50 -200q1 -19 43.5 -17t56.5 17q16 16 16 66t-8 92l-8 42h250z" />
<glyph unicode="&#xe338;" d="M200 600l50 -50h-200v50h150zM0 500h600v-450h-600v450zM300 150l150 200h-300z" />
<glyph unicode="&#xe339;" d="M200 600l50 -50h-200v50h150zM0 500h600v-450h-600v450zM150 200h300l-150 200z" />
<glyph unicode="&#xe33a;" d="M400 600l150 -150h-150v150zM550 250h100v-200h-100v-50v-50h-200v50h-300v600h300v-200h200v-150zM600 100v100h-100v100h-100v-100h-100v-100h100v-100h100v100h100z" />
<glyph unicode="&#xe33b;" d="M400 600l150 -150h-150v150zM550 250h100v-200h-100v-50h-500v600h300v-200h200v-150zM600 100v100h-300v-100h300z" />
<glyph unicode="&#xe33c;" d="M400 600l150 -150h-150v150zM550 150v50q0 21 -14.5 35.5t-35.5 14.5t-35.5 -14.5t-14.5 -35.5v-50h100zM650 200h50v-300h-400v100h-250v600h300v-200h200v-59q44 -16 72 -54.5t28 -86.5zM650 -50v200h-50v50q0 41 -29.5 70.5t-70.5 29.5t-70.5 -29.5t-29.5 -70.5v-50 h-50v-200h300z" />
<glyph unicode="&#xe33d;" d="M400 600l150 -150h-150v150zM650 400q62 0 106 -44t44 -106v-100h-100v-200h-400v50h-250v600h300v-200h200v-40q14 13 25 19q35 21 75 21zM750 200v50q0 41 -29.5 70.5t-70.5 29.5q-26 0 -50 -14q-22 -13 -35 -35q-1 -1 -2 -3q-5 -8 -8 -18q-2 -5 -2 -6q-3 -13 -3 -24 v-50h-200v-150v-50h300v200h-50v50q0 21 14.5 35.5t35.5 14.5t35.5 -14.5t14.5 -35.5v-50h50z" />
<glyph unicode="&#xe33e;" d="M600 450h-50v50h50v-50zM400 450h50v-50h-50v50zM550 250v50h50v-50h-50zM500 350h50v-50h-50v50zM450 400h50v-50h-50v50zM550 350v50h50v-50h-50zM650 200h-50v50h50v-50zM550 400h-50v50h50v-50zM450 100h50v-50h-50v50zM550 50v50h50v-50h-50zM350 100h50v-50h-50v50 zM450 550v-50h-50v50h50zM650 400h-50v50h50v-50zM650 550v-50h-50v50h50zM650 300h-50v50h50v-50zM550 550v-50h-50v50h50zM350 400h50v-50h-50v50zM300 400v-50h50v-50h-50v-50l-75 -75l-75 75l-150 -150h300v-50h-350v500h350h50v-50h-50v-50h50v-50h-50zM400 450h-50v50 h50v-50zM600 150h50v-50h-50v50zM500 450h-50v50h50v-50z" />
<glyph unicode="&#xe33f;" d="M550 50v50h50v-50h-50zM450 50v50h50v-50h-50zM450 250v-50h-50v50h50zM350 200h50v-50h-50v50zM450 550v-50h-50v50h50zM550 500h-50v50h50v-50zM650 500h-50v50h50v-50zM450 200h50v-50h-50v50zM600 400v50h50v-50h-50zM650 250v-50h-50v50h50zM600 300v50h50v-50h-50z M350 50v50h50v-50h-50zM400 150h50v-50h-50v50zM300 150h50v-50h-50v-50h-350v500h350h50v-50h-50h-300v-400l150 150l75 -75l75 75h50v-50h-50v-50zM600 150h50v-50h-50v50zM400 300v-50h-50v50h50zM500 150h50v-50h-50v50z" />
<glyph unicode="&#xe340;" d="M400 50l-250 250l250 250v-100l-150 -150l150 -150v-100z" />
<glyph unicode="&#xe341;" d="M200 550l250 -250l-250 -250v100l150 150l-150 150v100z" />
<glyph unicode="&#xe342;" d="M50 200l250 250l250 -250h-100l-150 150l-150 -150h-100z" />
<glyph unicode="&#xe343;" d="M550 400l-250 -250l-250 250h100l150 -150l150 150h100z" />
<glyph unicode="&#xe344;" d="M300 650q145 0 247.5 -102.5t102.5 -247.5t-102.5 -247.5t-247.5 -102.5t-247.5 102.5t-102.5 247.5t102.5 247.5t247.5 102.5zM300 0q124 0 212 88t88 212t-88 212t-212 88t-212 -88t-88 -212t88 -212t212 -88zM363 100l-200 200l200 200v-100l-100 -100l100 -100v-100z " />
<glyph unicode="&#xe345;" d="M300 650q145 0 247.5 -102.5t102.5 -247.5t-102.5 -247.5t-247.5 -102.5t-247.5 102.5t-102.5 247.5t102.5 247.5t247.5 102.5zM300 0q124 0 212 88t88 212t-88 212t-212 88t-212 -88t-88 -212t88 -212t212 -88zM238 400v100l200 -200l-200 -200v100l100 100z" />
<glyph unicode="&#xe346;" d="M300 650q145 0 247.5 -102.5t102.5 -247.5t-102.5 -247.5t-247.5 -102.5t-247.5 102.5t-102.5 247.5t102.5 247.5t247.5 102.5zM300 0q124 0 212 88t88 212t-88 212t-212 88t-212 -88t-88 -212t88 -212t212 -88zM100 238l200 200l200 -200h-100l-100 100l-100 -100h-100z " />
<glyph unicode="&#xe347;" d="M300 650q145 0 247.5 -102.5t102.5 -247.5t-102.5 -247.5t-247.5 -102.5t-247.5 102.5t-102.5 247.5t102.5 247.5t247.5 102.5zM300 0q124 0 212 88t88 212t-88 212t-212 88t-212 -88t-88 -212t88 -212t212 -88zM300 263l100 100h100l-200 -200l-200 200h100z" />
<glyph unicode="&#xe348;" d="M300 650q145 0 247.5 -102.5t102.5 -247.5t-102.5 -247.5t-247.5 -102.5t-247.5 102.5t-102.5 247.5t102.5 247.5t247.5 102.5zM300 0q124 0 212 88t88 212t-88 212t-212 88t-212 -88t-88 -212t88 -212t212 -88zM350 450v-100h100v-100h-100v-100h-100v100h-100v100h100 v100h100z" />
<glyph unicode="&#xe349;" d="M300 650q145 0 247.5 -102.5t102.5 -247.5t-102.5 -247.5t-247.5 -102.5t-247.5 102.5t-102.5 247.5t102.5 247.5t247.5 102.5zM300 0q124 0 212 88t88 212t-88 212t-212 88t-212 -88t-88 -212t88 -212t212 -88zM150 250v100h300v-100h-300z" />
<glyph unicode="&#xe34a;" d="M300 650q145 0 247.5 -102.5t102.5 -247.5t-102.5 -247.5t-247.5 -102.5t-247.5 102.5t-102.5 247.5t102.5 247.5t247.5 102.5zM300 0q124 0 212 88t88 212t-88 212t-212 88t-212 -88t-88 -212t88 -212t212 -88zM388 460l71 -71l-88 -89l88 -88l-71 -71l-88 89l-88 -89 l-71 71l88 88l-88 89l71 71l88 -89z" />
<glyph unicode="&#xe34b;" d="M279 263l160 168l56 -54l-217 -227l-133 141l56 53zM300 650q145 0 247.5 -102.5t102.5 -247.5t-102.5 -247.5t-247.5 -102.5t-247.5 102.5t-102.5 247.5t102.5 247.5t247.5 102.5zM300 0q124 0 212 88t88 212t-88 212t-212 88t-212 -88t-88 -212t88 -212t212 -88z" />
<glyph unicode="&#xe34c;" d="M249 105v66h82v-66h-82zM297 465q59 0 92 -29t33 -79q0 -31 -18 -56.5t-46 -40.5q-16 -10 -21.5 -22t-5.5 -32h-82q0 34 12 51t43 40q17 10 26.5 25t9.5 35t-11 32.5t-32 12.5q-16 0 -27 -10t-11 -30h-81v1q-1 51 32 76.5t87 25.5zM300 650q95 0 175.5 -47t127.5 -127.5 t47 -175.5t-47 -175.5t-127.5 -127.5t-175.5 -47t-175.5 47t-127.5 127.5t-47 175.5t47 175.5t127.5 127.5t175.5 47zM300 0q124 0 212 88t88 212q0 81 -40 150.5t-109.5 109.5t-150.5 40q-124 0 -212 -88t-88 -212t88 -212t212 -88z" />
<glyph unicode="&#xe350;" d="M300 650q145 0 247.5 -102.5t102.5 -247.5t-102.5 -247.5t-247.5 -102.5t-247.5 102.5t-102.5 247.5t102.5 247.5t247.5 102.5zM300 0q124 0 212 88t88 212t-88 212t-212 88t-212 -88t-88 -212t88 -212t212 -88zM226 369q-30 0 -48 -19t-18 -49q0 -33 19 -51t48 -18 q25 0 44 8l9 -56q-26 -11 -68 -11q-59 0 -94.5 33.5t-35.5 91.5q0 56 37 93t103 37q31 0 58 -10l-12 -56q-16 7 -42 7zM438 369q-30 0 -48 -19t-17 -49q0 -33 19 -51t48 -18q25 0 43 8l9 -56q-24 -11 -68 -11q-59 0 -94 33.5t-35 91.5q0 56 37 93t103 37q31 0 58 -10 l-12 -56q-16 7 -43 7z" />
<glyph unicode="&#xe351;" d="M300 650q145 0 247.5 -102.5t102.5 -247.5t-102.5 -247.5t-247.5 -102.5t-247.5 102.5t-102.5 247.5t102.5 247.5t247.5 102.5zM300 0q124 0 212 88t88 212t-88 212t-212 88t-212 -88t-88 -212t88 -212t212 -88zM350 475q0 21 -14.5 35.5t-35.5 14.5t-35.5 -14.5 t-14.5 -35.5q0 -20 14.5 -35t35.5 -15t35.5 15t14.5 35zM400 250v100q0 21 -14.5 35.5t-35.5 14.5h-100q-21 0 -35.5 -14.5t-14.5 -35.5v-100h200zM350 100v150h-100v-150h100z" />
<glyph unicode="&#xe352;" d="M625 431q54 -134 -3 -267.5t-191 -187.5q-134 -55 -267.5 2t-188.5 191q-54 134 3 267.5t191 188.5q134 54 267.5 -2.5t188.5 -191.5zM188 578q-96 -39 -147 -127l150 -64q14 55 84 69v49h51v-46q45 -1 76 -17l-16 -59q-33 18 -75 18q-44 0 -44 -29q0 -15 20 -25 l301 -128q28 98 -10 194q-30 75 -94.5 124.5t-140 59.5t-155.5 -19zM412 22q96 38 147 128l-145 61q-5 -29 -28.5 -50t-61.5 -27v-54h-52v50q-51 1 -88 22l15 61q42 -23 87 -23q50 0 50 32q0 20 -25 33l-31 13q-18 6 -40 17l-228 97q-29 -99 10 -194q46 -115 160.5 -164 t229.5 -2z" />
<glyph unicode="&#xe353;" d="M300 650q145 0 247.5 -102.5t102.5 -247.5t-102.5 -247.5t-247.5 -102.5t-247.5 102.5t-102.5 247.5t102.5 247.5t247.5 102.5zM300 0q124 0 212 88t88 212t-88 212t-212 88t-212 -88t-88 -212t88 -212t212 -88zM450 350v50h-300v-50h300zM450 200v50h-300v-50h300z" />
<glyph unicode="&#xe354;" d="M300 650q145 0 247.5 -102.5t102.5 -247.5t-102.5 -247.5t-247.5 -102.5t-247.5 102.5t-102.5 247.5t102.5 247.5t247.5 102.5zM300 0q124 0 212 88t88 212t-88 212t-212 88t-212 -88t-88 -212t88 -212t212 -88zM300 500q83 0 141.5 -58.5t58.5 -141.5q0 -82 -59 -141 t-141 -59q-54 0 -100 27.5t-72 72.5h61q47 -50 111 -50q62 0 106 44t44 106t-44 106t-106 44q-66 0 -111 -50h68l-100 -100l-100 100h71q26 46 71.5 73t100.5 27z" />
<glyph unicode="&#xe355;" d="M100 103v400l-150 -15v-52h84v-333h66zM510 149q-22 0 -38 4q-17 3 -34 11l-11 -50q19 -8 40.5 -12.5t42.5 -4.5q61 0 100.5 39t39.5 106v111q0 68 -36 106t-95 38q-53 0 -88 -37.5t-35 -96.5q0 -61 31.5 -96t86.5 -35q21 0 39.5 9t31.5 27v-28q0 -43 -21 -67t-54 -24z M520 282q-29 0 -44.5 22.5t-15.5 58.5t17 59t43 23q31 0 48 -21t17 -60v-46q-9 -16 -25.5 -26t-39.5 -10zM300 253v50h-150v-50h150z" />
<glyph unicode="&#xe356;" d="M602 100v400l-149 -14v-52h83v-334h66zM62 152q-22 0 -38 3q-17 4 -34 11l-11 -49q20 -9 41 -13t42 -4q61 0 100.5 38.5t39.5 106.5v110q0 69 -36 107t-95 38q-53 0 -88 -38t-35 -96q0 -62 31 -97q32 -35 87 -35q21 0 39.5 9t31.5 27v-28q0 -43 -21 -66.5t-54 -23.5z M72 285q-29 0 -44.5 22t-15.5 59q0 35 17 58.5t43 23.5q31 0 48 -21t17 -61v-46q-9 -16 -25.5 -25.5t-39.5 -9.5zM402 250v50h-150v-50h150z" />
<glyph unicode="&#xe357;" d="M150 193l31 -93h69l-138 400h-64l-139 -400h69l30 93h142zM27 249l52 158h2l51 -158h-105zM478 153l196 307v40h-273v-54h194l-195 -304v-42h281v53h-203zM401 250v50h-150v-50h150z" />
<glyph unicode="&#xe358;" d="M596 193l31 -93h68l-137 400h-64l-139 -400h68l31 93h142zM473 249l52 158h2l51 -158h-105zM33 153l196 307v40h-273v-54h194l-195 -304v-42h281v53h-203zM355 250v50h-150v-50h150z" />
<glyph unicode="&#xe359;" d="M400 300h50v-250h-350v250h50v75q0 52 36.5 88.5t88.5 36.5t88.5 -36.5t36.5 -88.5v-75zM200 375v-75h150v75q0 31 -22 53t-53 22t-53 -22t-22 -53z" />
<glyph unicode="&#xe35a;" d="M474 501q52 0 88.5 -36.5t36.5 -88.5v-75h-50v75q0 31 -22 53t-53 22t-53 -22t-22 -53v-75h50v-250h-350v250h250v75q0 52 36.5 88.5t88.5 36.5z" />
<glyph unicode="&#xe360;" d="M50 350h-50v50h50v-50zM50 250h-50v50h50v-50zM150 350h-50v50h50v-50zM150 250h-50v50h50v-50zM250 350h-50v50h50v-50zM350 350h-50v50h50v-50zM150 150h-50v50h50v-50zM50 50h-50v50h50v-50zM250 250h-50v50h50v-50zM50 150h-50v50h50v-50zM0 550v50h50v-50h-50z M550 550h-50v50h50v-50zM450 450h-50v50h50v-50zM350 550h-50v50h50v-50zM150 550h-50v50h50v-50zM250 550h-50v50h50v-50zM450 550h-50v50h50v-50zM250 450h-50v50h50v-50zM50 450h-50v50h50v-50zM350 450h-50v50h50v-50zM150 450h-50v50h50v-50z" />
<glyph unicode="&#xe361;" d="M350 550v50h50v-50h-50zM250 550v50h50v-50h-50zM350 450v50h50v-50h-50zM250 450v50h50v-50h-50zM350 350v50h50v-50h-50zM350 250v50h50v-50h-50zM150 450v50h50v-50h-50zM50 550v50h50v-50h-50zM250 350v50h50v-50h-50zM150 550v50h50v-50h-50zM550 600h50v-50h-50v50 zM550 50v50h50v-50h-50zM450 150v50h50v-50h-50zM550 250v50h50v-50h-50zM550 450v50h50v-50h-50zM550 350v50h50v-50h-50zM550 150v50h50v-50h-50zM450 350v50h50v-50h-50zM450 550v50h50v-50h-50zM450 250v50h50v-50h-50zM450 450v50h50v-50h-50z" />
<glyph unicode="&#xe362;" d="M550 250h50v-50h-50v50zM550 350h50v-50h-50v50zM450 250h50v-50h-50v50zM450 350h50v-50h-50v50zM350 250h50v-50h-50v50zM250 250h50v-50h-50v50zM450 450h50v-50h-50v50zM550 550h50v-50h-50v50zM350 350h50v-50h-50v50zM550 450h50v-50h-50v50zM600 50v-50h-50v50h50 zM50 50h50v-50h-50v50zM150 150h50v-50h-50v50zM250 50h50v-50h-50v50zM450 50h50v-50h-50v50zM350 50h50v-50h-50v50zM150 50h50v-50h-50v50zM350 150h50v-50h-50v50zM550 150h50v-50h-50v50zM250 150h50v-50h-50v50zM450 150h50v-50h-50v50z" />
<glyph unicode="&#xe363;" d="M250 50v-50h-50v50h50zM350 50v-50h-50v50h50zM250 150v-50h-50v50h50zM350 150v-50h-50v50h50zM250 250v-50h-50v50h50zM250 350v-50h-50v50h50zM450 150v-50h-50v50h50zM550 50v-50h-50v50h50zM350 250v-50h-50v50h50zM450 50v-50h-50v50h50zM50 0h-50v50h50v-50z M50 550v-50h-50v50h50zM150 450v-50h-50v50h50zM50 350v-50h-50v50h50zM50 150v-50h-50v50h50zM50 250v-50h-50v50h50zM50 450v-50h-50v50h50zM150 250v-50h-50v50h50zM150 50v-50h-50v50h50zM150 350v-50h-50v50h50zM150 150v-50h-50v50h50z" />
<glyph unicode="&#xe364;" d="M50 500v50h-50v-50h50zM50 400v50h-50v-50h50zM50 300v50h-50v-50h50zM150 500v50h-50v-50h50zM150 400v50h-50v-50h50zM150 300v50h-50v-50h50zM250 500v50h-50v-50h50zM250 400v50h-50v-50h50zM250 300v50h-50v-50h50zM350 500v50h-50v-50h50zM350 400v50h-50v-50h50z M350 300v50h-50v-50h50zM50 200v50h-50v-50h50zM150 200v50h-50v-50h50zM250 200v50h-50v-50h50zM350 200v50h-50v-50h50zM450 500v50h-50v-50h50zM450 400v50h-50v-50h50zM450 300v50h-50v-50h50zM450 200v50h-50v-50h50zM50 100v50h-50v-50h50zM150 100v50h-50v-50h50z M250 100v50h-50v-50h50zM350 100v50h-50v-50h50zM450 100v50h-50v-50h50zM50 0v50h-50v-50h50zM150 0v50h-50v-50h50zM250 0v50h-50v-50h50zM350 0v50h-50v-50h50zM450 0v50h-50v-50h50zM550 500v50h-50v-50h50zM550 400v50h-50v-50h50zM550 300v50h-50v-50h50zM550 200v50 h-50v-50h50zM550 100v50h-50v-50h50zM550 0v50h-50v-50h50z" />
<glyph unicode="&#xe365;" d="M250 0v50h50v-50h-50zM150 600v50h50v-50h-50zM150 500v50h50v-50h-50zM250 100v50h50v-50h-50zM250 200v50h50v-50h-50zM150 400v50h50v-50h-50zM150 100v50h50v-50h-50zM150 0v50h50v-50h-50zM150 300v50h50v-50h-50zM150 200v50h50v-50h-50zM250 400v50h50v-50h-50z M350 300v50h50v-50h-50zM350 400v50h50v-50h-50zM350 500v50h50v-50h-50zM350 200v50h50v-50h-50zM350 650h50v-50h-50v50zM350 0v50h50v-50h-50zM250 600v50h50v-50h-50zM250 500v50h50v-50h-50zM250 300v50h50v-50h-50zM350 100v50h50v-50h-50z" />
<glyph unicode="&#xe366;" d="M650 300h-50v50h50v-50zM50 200h-50v50h50v-50zM150 200h-50v50h50v-50zM550 300h-50v50h50v-50zM450 300h-50v50h50v-50zM250 200h-50v50h50v-50zM550 200h-50v50h50v-50zM650 200h-50v50h50v-50zM350 200h-50v50h50v-50zM450 200h-50v50h50v-50zM250 300h-50v50h50v-50 zM350 400h-50v50h50v-50zM250 400h-50v50h50v-50zM150 400h-50v50h50v-50zM450 400h-50v50h50v-50zM0 400v50h50v-50h-50zM650 400h-50v50h50v-50zM50 300h-50v50h50v-50zM150 300h-50v50h50v-50zM350 300h-50v50h50v-50zM550 400h-50v50h50v-50z" />
<glyph unicode="&#xe367;" d="M150 100v50h250v-50h-250zM150 200v50h250v-50h-250zM150 0v50h250v-50h-250zM150 400v50h250v-50h-250zM150 650h250v-50h-250v50zM150 300v50h250v-50h-250zM150 500v50h250v-50h-250z" />
<glyph unicode="&#xe368;" d="M500 200h-50v250h50v-250zM400 200h-50v250h50v-250zM600 200h-50v250h50v-250zM200 200h-50v250h50v-250zM-50 200v250h50v-250h-50zM300 200h-50v250h50v-250zM100 200h-50v250h50v-250z" />
<glyph unicode="&#xe369;" d="M-50 200v50h650v-50h-650zM-50 450h650v-50h-650v50zM-50 300v50h650v-50h-650z" />
<glyph unicode="&#xe36a;" d="M150 0v650h50v-650h-50zM350 650h50v-650h-50v650zM250 0v650h50v-650h-50z" />
<glyph unicode="&#xe36b;" d="M598 488v-71l-415 -415h-71zM598 338l-1 -71l-264 -265h-71v1zM597 188l1 -71l-115 -115h-71z" />
<glyph unicode="&#xe370;" d="M200 400h500l-200 -350h-500v450h50v100h150l100 -100h300v-50h-325l-100 100h-75v-100h-50v-312zM471 100l143 250h-385l-143 -250h385z" />
<glyph unicode="&#xe371;" d="M150 500l100 -100h250v-400h-550v400h50v100h150zM350 550h300v-450h-100v350h-279l-100 100h-71v100h150z" />
<glyph unicode="&#xe372;" d="M200 600l50 -50h-200v50h150zM650 200h50v-300h-400v150h-300v450h600v-189q50 -45 50 -111zM650 -50v200h-50v50q0 41 -29.5 70.5t-70.5 29.5t-70.5 -29.5t-29.5 -70.5v-50h-50v-200h300zM500 250q21 0 35.5 -14.5t14.5 -35.5v-50h-100v50q0 21 14.5 35.5t35.5 14.5z " />
<glyph unicode="&#xe373;" d="M200 600l50 -50h-200v50h150zM650 200h50v-300h-400v150h-300v450h600v-189q50 -45 50 -111zM300 100v100h50q0 24 7.5 47t21.5 41.5t32.5 32.5t41.5 21.5t47 7.5t50 -9v109h-500v-350h250zM650 -50v200h-50v50q0 41 -29.5 70.5t-70.5 29.5t-70.5 -29.5t-29.5 -70.5v-50 h-50v-200h300zM500 250q21 0 35.5 -14.5t14.5 -35.5v-50h-100v50q0 21 14.5 35.5t35.5 14.5z" />
<glyph unicode="&#xe374;" d="M650 400q62 0 106 -44t44 -106v-100h-100v-200h-400v100h-300v450h600v-109q26 9 50 9zM750 200v50q0 41 -29.5 70.5t-70.5 29.5q-26 0 -50 -14q-22 -13 -35 -35q-1 0 -2 -3q-5 -8 -8 -18q-2 -5 -2 -6q-3 -13 -3 -24v-50h-200v-150v-50h300v200h-50v50q0 21 14.5 35.5 t35.5 14.5t35.5 -14.5t14.5 -35.5v-50h50zM200 600l50 -50h-200v50h150z" />
<glyph unicode="&#xe375;" d="M650 300q41 0 70.5 -29.5t29.5 -70.5v-50h-50v50q0 21 -14.5 35.5t-35.5 14.5t-35.5 -14.5t-14.5 -35.5v-50h50v-200h-300v50v150h200v50q0 11 3 24q0 1 2 6q3 10 8 18q1 2 2 3q13 22 35 35q24 14 50 14zM50 450v-350h250v-50h-300v450h600v-159q-12 -4 -25 -12 q-13 -6 -25 -18v139h-500zM200 600l50 -50h-200v50h150z" />
<glyph unicode="&#xe376;" d="M0 500h600v-450h-600v450zM350 250h125l-175 175l-175 -175h125v-100h100v100zM200 600l50 -50h-200v50h150z" />
<glyph unicode="&#xe377;" d="M0 500h600v-450h-600v450zM300 125l175 175h-125v100h-100v-100h-125zM200 600l50 -50h-200v50h150z" />
<glyph unicode="&#xe378;" d="M200 600l50 -50h-200v50h150zM475 200q31 0 53 -22t22 -53t-22 -53t-53 -22t-53 22t-22 53t22 53t53 22zM700 179v-108l-60 -15l32 -52l-76 -76l-53 32l-14 -60h-108l-15 60l-52 -32l-76 76l28 46h-306v450h600v-182l72 -72l-32 -52zM650 110v30l-55 13q-4 20 -15 37 l29 48l-21 21l-48 -29q-17 11 -37 15l-13 55h-30l-13 -55q-20 -4 -37 -15l-48 29l-21 -21l29 -48q-11 -17 -15 -37l-55 -13v-30l55 -13q4 -20 15 -37l-29 -48l21 -21l48 29q17 -11 37 -15l13 -55h30l13 55q20 4 37 15l48 -29l21 21l-29 48q11 17 15 37z" />
<glyph unicode="&#xe379;" d="M200 600l50 -50h-200v50h150zM475 200q31 0 53 -22t22 -53t-22 -53t-53 -22t-53 22t-22 53t22 53t53 22zM700 179v-108l-60 -15l32 -52l-76 -76l-53 32l-14 -60h-108l-15 60l-52 -32l-76 76l28 46h-306v450h600v-182l72 -72l-32 -52zM250 100v79l60 15l-32 52l76 76 l52 -32l15 60h108l15 -60l6 4v156h-500v-350h200zM650 110v30l-55 13q-4 20 -15 37l29 48l-21 21l-48 -29q-17 11 -37 15l-13 55h-30l-13 -55q-20 -4 -37 -15l-48 29l-21 -21l29 -48q-11 -17 -15 -37l-55 -13v-30l55 -13q4 -20 15 -37l-29 -48l21 -21l48 29q17 -11 37 -15 l13 -55h30l13 55q20 4 37 15l48 -29l21 21l-29 48q11 17 15 37z" />
<glyph unicode="&#xe37a;" d="M475 200q31 0 53 -22t22 -53t-22 -53t-53 -22t-53 22t-22 53t22 53t53 22zM672 246l-32 -52l60 -15v-108l-60 -15l32 -52l-76 -76l-53 32l-14 -60h-108l-15 60l-52 -32l-76 76l28 46h-306v400v50h50v100h150l100 -100h300v-50h-500l-50 -312l150 262h500l-66 -116z M650 140l-55 13q-4 20 -15 37l29 48l-21 21l-48 -29q-17 11 -37 15l-13 55h-30l-13 -55q-20 -4 -37 -15l-48 29l-21 -21l29 -48q-11 -17 -15 -37l-55 -13v-30l55 -13q4 -20 15 -37l-29 -48l21 -21l48 29q17 -11 37 -15l13 -55h30l13 55q20 4 37 15l48 -29l21 21l-29 48 q11 17 15 37l55 13v30z" />
<glyph unicode="&#xe37b;" d="M475 200q31 0 53 -22t22 -53t-22 -53t-53 -22t-53 22t-22 53t22 53t53 22zM672 246l-32 -52l60 -15v-108l-60 -15l32 -52l-76 -76l-53 32l-14 -60h-108l-15 60l-52 -32l-76 76l28 46h-306v450h50v100h150l100 -100h300v-50h-325l-100 100h-75v-100h-50v-312l150 262h500 l-66 -116zM614 350h-85l15 -60zM250 100v79l60 15l-32 52l76 76l52 -32l15 60h-192l-143 -250h164zM650 140l-55 13q-4 20 -15 37l29 48l-21 21l-48 -29q-17 11 -37 15l-13 55h-30l-13 -55q-20 -4 -37 -15l-48 29l-21 -21l29 -48q-11 -17 -15 -37l-55 -13v-30l55 -13 q4 -20 15 -37l-29 -48l21 -21l48 29q17 -11 37 -15l13 -55h30l13 55q20 4 37 15l48 -29l21 21l-29 48q11 17 15 37l55 13v30z" />
<glyph unicode="&#xe380;" d="M50 450v50h500v-400h-50v350h-450zM150 600h500v-400h-50v350h-450v50zM-50 0v400h500v-400h-500zM0 350v-300l100 100l50 -50l150 150l100 -100v200h-400z" />
<glyph unicode="&#xe381;" d="M500 250q21 0 35.5 -14.5t14.5 -35.5v-50h-100v50q0 21 14.5 35.5t35.5 14.5zM650 200h50v-300h-400v100h-350v400h500v-59q26 9 50 9v100h-450v50h500v-159q28 -10 50 -30v239h-450v50h500v-400zM150 100l150 150l50 -50q0 66 50 111v39h-400v-300l100 100zM650 -50v200 h-50v50q0 41 -29.5 70.5t-70.5 29.5t-70.5 -29.5t-29.5 -70.5v-50h-50v-150v-50h300z" />
<glyph unicode="&#xe382;" d="M500 250q21 0 35.5 -14.5t14.5 -35.5v-50h-100v50q0 21 14.5 35.5t35.5 14.5zM650 200h50v-300h-400v100h-350v400h500v-59q26 9 50 9v100h-450v50h500v-159q28 -10 50 -30v239h-450v50h500v-400zM300 50v150h50l-50 50l-150 -150l-50 50l-100 -100h300zM650 -50v200h-50 v50q0 41 -29.5 70.5t-70.5 29.5t-70.5 -29.5t-29.5 -70.5v-50h-50v-150v-50h300z" />
<glyph unicode="&#xe383;" d="M700 179v-108l-60 -15l32 -52l-76 -76l-52 31l-16 -59h-106l-16 59l-52 -31l-72 72h-332v400h500v-50h50v100h-450v50h500v-205l50 23v232h-450v50h500v-332l22 -22l-32 -52zM250 50v150l-100 -100l-50 50l-100 -100h250zM650 110v30l-54 13q-5 19 -16 37l29 48l-21 21 l-48 -29q-17 11 -37 16l-13 54h-30l-13 -54q-20 -5 -37 -16l-48 29l-21 -21l29 -48q-11 -18 -16 -37l-54 -13v-30l54 -13q5 -19 16 -37l-29 -48l21 -21l48 29q17 -11 37 -16l13 -54h30l13 54q20 5 37 16l48 -29l21 21l-29 48q11 17 16 37zM475 200q31 0 53 -22t22 -53 t-22 -53t-53 -22t-53 22t-22 53t22 53t53 22z" />
<glyph unicode="&#xe384;" d="M700 179v-108l-60 -15l32 -52l-76 -76l-52 31l-16 -59h-106l-16 59l-52 -31l-72 72h-332v400h500v-50h50v100h-450v50h500v-205l50 23v232h-450v50h500v-332l22 -22l-32 -52zM150 100l212 217l38 -22v55h-400v-300l100 100zM650 110v30l-54 13q-5 19 -16 37l29 48l-21 21 l-48 -29q-17 11 -37 16l-13 54h-30l-13 -54q-20 -5 -37 -16l-48 29l-21 -21l29 -48q-11 -18 -16 -37l-54 -13v-30l54 -13q5 -19 16 -37l-29 -48l21 -21l48 29q17 -11 37 -16l13 -54h30l13 54q20 5 37 16l48 -29l21 21l-29 48q11 17 16 37zM475 200q31 0 53 -22t22 -53 t-22 -53t-53 -22t-53 22t-22 53t22 53t53 22z" />
<glyph unicode="&#xe385;" d="M400 600l150 -150v-450h-500v600h350zM479 450l-79 79v-79h79zM500 50v350h-150v150h-250v-500h400z" />
<glyph unicode="&#xe386;" d="M650 200h50v-300h-400v100h-250v600h350l150 -150v-109q44 -16 72 -54.5t28 -86.5zM400 529v-79h79zM300 50v150h50q0 62 44 106t106 44v50h-150v150h-250v-500h200zM650 -50v200h-50v50q0 41 -29.5 70.5t-70.5 29.5t-70.5 -29.5t-29.5 -70.5v-50h-50v-200h300zM500 250 q21 0 35.5 -14.5t14.5 -35.5v-50h-100v50q0 21 14.5 35.5t35.5 14.5z" />
<glyph unicode="&#xe387;" d="M595 200v350h-450v50h500v-400h-50zM566 49l129 -31v-118h-500v100h-250v400h500v-58l6 -2q11 -4 19 -8l16 -3q2 0 5 -1t4 -2v124h-450v50h500v-200q42 -37 42 -90q0 -11 -1 -22q12 -16 10 -37q-6 -45 -23 -73q-3 -15 -7 -29zM-5 50h329q-4 13 -7 27q-8 13 -14 32 t-7.5 29t-1.5 12l1 100l-150 -150l-50 50zM645 -50v29l-141 33l1 25q17 25 20 59q2 0 8.5 15.5t10.5 31t1 16.5q-7 2 -13 -9q5 29 5 60q0 22 -15.5 43.5t-44.5 26.5q-13 2 -17 3l-6 1.5t-7 3t-14 5.5q-1 -11 -20 -13q-16 -2 -31 -14.5t-23.5 -27.5t-8.5 -28q0 -14 2 -29 t4 -23l2 -8q-1 1 -2 3t-4 4.5t-6.5 1.5t0.5 -16.5t10.5 -31t8.5 -15.5q1 -7 2.5 -14t3 -12.5t3.5 -11t4 -9.5t3.5 -6.5t2.5 -4.5l1 -1l1 -25l-141 -33v-29h400z" />
<glyph unicode="&#xe388;" d="M600 200v350h-450v50h500v-400h-50zM571 49l129 -31v-118h-500v100h-250v400h500v-58l6 -2q11 -4 19 -8l16 -3q2 0 5 -1t4 -2v124h-450v50h500v-200q42 -37 42 -90q0 -11 -1 -22q12 -16 10 -37q-6 -45 -23 -73q-3 -15 -7 -29zM150 100l150 150l10 -11q10 29 32 53t51 33 l4 25h-397v-300l100 100zM650 -50v29l-141 33l1 25q17 25 20 59q2 0 8.5 15.5t10.5 31t1 16.5q-7 2 -13 -9q5 29 5 60q0 22 -15.5 43.5t-44.5 26.5q-13 2 -17 3l-6 1.5t-7 3t-14 5.5q-1 -11 -20 -13q-16 -2 -31 -14.5t-23.5 -27.5t-8.5 -28q0 -14 2 -29t4 -23l2 -8 q-1 1 -2 3t-4 4.5t-6.5 1.5t0.5 -16.5t10.5 -31t8.5 -15.5q1 -7 2.5 -14t3 -12.5t3.5 -11t4 -9.5t3.5 -6.5t2.5 -4.5l1 -1l1 -25l-141 -33v-29h400z" />
<glyph unicode="&#xe389;" d="M200 600l50 -50h-200v50h150zM571 49l129 -31v-118h-500v118q8 2 21.5 5.5t42 10.5t47 11.5l18.5 4.5h-329v450h600v-450h-29v-1zM650 -50v29l-141 33l1 25q17 25 20 59q2 0 8.5 15.5t10.5 31t1 16.5q-7 2 -13 -9q5 29 5 60q0 22 -15.5 43.5t-44.5 26.5q-11 2 -14.5 2.5 t-7 1.5t-4 1.5t-6 2.5t-12.5 5q-1 -11 -20 -13q-12 -1 -24 -9t-20.5 -18.5t-13.5 -22t-5 -20.5q0 -14 2 -29t4 -23l2 -8q-1 1 -2 3t-4 4.5t-6.5 1.5t0.5 -16.5t10.5 -31t8.5 -15.5q2 -15 7 -30t9 -22l4 -7l1 -25l-141 -33v-29h400z" />
<glyph unicode="&#xe38a;" d="M200 600l50 -50h-200v50h150zM600 42l100 -24v-118h-500v118q8 2 21.5 5.5t42 10.5t47 11.5l18.5 4.5h-329v450h600v-458zM305 210q0 34 25.5 68.5t62.5 46.5l6 36l57 -21q11 -4 19 -8l16 -3q33 -6 59 -29v150h-500v-350h261q-12 32 -12 50q-1 19 7 34q-1 14 -1 26z M650 -50v29l-141 33l1 25q17 25 20 59q2 0 8.5 15.5t10.5 31t1 16.5q-7 2 -13 -9q5 29 5 60q0 22 -15.5 43.5t-44.5 26.5q-13 2 -17 3l-6 1.5t-7 3t-14 5.5q-1 -11 -19 -13q-13 -1 -25 -9t-20.5 -18.5t-13.5 -22t-5 -20.5q0 -14 2 -29t4 -23l2 -8q-1 1 -2 3t-4 4.5t-6.5 1.5 t0.5 -16.5t10.5 -31t8.5 -15.5q2 -15 7 -30t9 -22l4 -7l1 -25l-141 -33v-29h400z" />
<glyph unicode="&#xe38b;" d="M500 250q21 0 35.5 -14.5t14.5 -35.5v-50h-100v50q0 21 14.5 35.5t35.5 14.5zM700 400l-71 -125q21 -35 21 -75h50v-300h-400v150h-300v400v50h50v100h150l100 -100h300v-50h-500l-50 -312l150 262h500zM650 -50v200h-50v50q0 41 -29.5 70.5t-70.5 29.5t-70.5 -29.5 t-29.5 -70.5v-50h-50v-150v-50h300z" />
<glyph unicode="&#xe38c;" d="M700 400l-71 -125q21 -36 21 -75h50v-300h-400v150h-300v450h50v100h150l100 -100h300v-50h-325l-100 100h-75v-100h-50v-312l150 262h500zM300 100v100h50q0 62 44 106t106 44q53 0 94 -34l20 34h-385l-143 -250h214zM650 -50v200h-50v50q0 41 -29.5 70.5t-70.5 29.5 t-70.5 -29.5t-29.5 -70.5v-50h-50v-200h300zM500 250q21 0 35.5 -14.5t14.5 -35.5v-50h-100v50q0 21 14.5 35.5t35.5 14.5z" />
<glyph unicode="&#xe38d;" d="M578 78q-3 -15 -7 -29l129 -31v-118h-500v118l130 31l-1 1h-329v400v50h50v100h150l100 -100h300v-50h-500l-50 -313l150 263h500l-108 -189v-1q0 -11 -1 -22q12 -16 10 -37q-3 -40 -23 -73zM650 -21l-141 33l1 25q17 25 20 59q2 0 8.5 15.5t10.5 31t1 16.5q-7 2 -13 -9 q5 29 5 60q0 22 -15.5 43.5t-44.5 26.5q-13 2 -17 3l-6 1.5t-7 3t-14 5.5q-1 -11 -20 -13q-24 -3 -43.5 -26.5t-19.5 -43.5q0 -14 2 -29t4 -23l2 -8l-7 8q-3 2 -6 1t1 -16.5t10.5 -31t8.5 -15.5q2 -15 7 -30t9 -22l4 -7l1 -25l-141 -33v-29h400v29z" />
<glyph unicode="&#xe38e;" d="M578 78q-3 -15 -7 -29l129 -31v-118h-500v118l130 31l-1 1h-329v450h50v100h150l100 -100h300v-50h-325l-100 100h-75v-100h-50v-313l150 263h500l-108 -189v-1q0 -11 -1 -22q12 -16 10 -37q-3 -40 -23 -73zM614 350h-186l28 -10q11 -4 19 -8l16 -3q51 -9 80 -54z M305 210q0 22 11.5 45.5t32 42.5t44.5 27l4 25h-168l-143 -250h225q-12 32 -12 50q-1 19 7 34q-1 14 -1 26zM650 -21l-141 33l1 25q17 25 20 59q2 0 8.5 15.5t10.5 31t1 16.5q-7 2 -13 -9q5 29 5 60q0 22 -15.5 43.5t-44.5 26.5q-13 2 -17 3l-6 1.5t-7 3t-14 5.5 q-1 -11 -20 -13q-24 -3 -43.5 -26.5t-19.5 -43.5q0 -14 2 -29t4 -23l2 -8q-1 1 -2 3t-4 4.5t-6.5 1.5t0.5 -16.5t10.5 -31t8.5 -15.5q1 -7 2.5 -14t3 -12.5t3.5 -11t4 -9.5t3.5 -6.5t2.5 -4.5l1 -1l1 -25l-141 -33v-29h400v29z" />
<glyph unicode="&#xe38f;" d="M400 600l150 -150h-150v150zM571 49l129 -31v-118h-500v100h-150v600h300v-200h200v-100q42 -37 42 -90q0 -11 -1 -22q12 -16 10 -37q-3 -40 -23 -73q-3 -15 -7 -29zM650 -50v29l-141 33l1 25q17 25 20 59q2 0 8.5 15.5t10.5 31t1 16.5q-7 2 -13 -9q5 29 5 60 q0 22 -15.5 43.5t-44.5 26.5q-13 2 -17 3l-6 1.5t-7 3t-14 5.5q-1 -11 -20 -13q-24 -3 -43.5 -26.5t-19.5 -43.5q0 -14 2 -29t4 -23l2 -8q-1 1 -2 3t-4 4.5t-6.5 1.5t0.5 -16.5t10.5 -31t8.5 -15.5q2 -15 7 -30t9 -22l4 -7l1 -25l-141 -33v-29h400z" />
<glyph unicode="&#xe390;" d="M571 49l129 -31v-118h-500v100h-150v600h350l150 -150v-150q42 -37 42 -90q0 -11 -1 -22q12 -16 10 -37q-3 -40 -23 -73q-3 -15 -7 -29zM400 529v-79h79zM100 50h229q-4 13 -7 27q-4 6 -7 13.5t-5.5 14t-4.5 13.5t-3 12.5t-2 10t-1 7v2.5q-1 19 7 34q-1 14 -1 26 q0 34 25.5 68.5t62.5 46.5l6 36l57 -21q11 -4 19 -8l16 -3q2 0 6 -2q2 0 3 -1v74h-150v150h-250v-500zM650 -50v29l-141 33l1 25q17 25 20 59q2 0 8.5 15.5t10.5 31t1 16.5t-6.5 -1.5t-4.5 -4.5l-2 -3q5 29 5 60q0 22 -15.5 43.5t-44.5 26.5q-13 2 -17 3l-6 1.5t-7 3 t-14 5.5q-1 -11 -20 -13q-24 -3 -43.5 -26.5t-19.5 -43.5q0 -14 2 -29t4 -23l2 -8q-1 1 -2 3t-4 4.5t-6.5 1.5t0.5 -16.5t10.5 -31t8.5 -15.5q1 -7 2.5 -14t3 -12.5t3.5 -11t4 -9.5t3.5 -6.5t2.5 -4.5l1 -1l1 -25l-141 -33v-29h400z" />
<glyph unicode="&#xe391;" d="M400 600l150 -150h-150v150zM550 125q0 31 -22 53t-53 22t-53 -22t-22 -53t22 -53t53 -22t53 22t22 53zM700 178v-106l-60 -16l32 -52l-76 -76l-52 31l-15 -59h-108l-15 59l-52 -31l-72 72h-232v600h300v-200h200v-106l46 28l76 -76l-32 -52zM650 110v30l-54 13 q-5 20 -16 37l29 48l-21 21l-48 -29q-18 11 -37 16l-13 54h-30l-13 -54q-19 -5 -37 -16l-48 29l-21 -21l29 -48q-11 -17 -16 -37l-54 -13v-30l54 -13q5 -20 16 -37l-29 -48l21 -21l48 29q18 -11 37 -16l13 -54h30l13 54q19 5 37 16l48 -29l21 21l-29 48q11 17 16 37z" />
<glyph unicode="&#xe392;" d="M475 200q31 0 53 -22t22 -53t-22 -53t-53 -22t-53 22t-22 53t22 53t53 22zM700 179v-108l-60 -15l32 -52l-76 -76l-53 32l-14 -60h-108l-15 60l-52 -32l-72 72h-232v600h350l150 -150v-156l46 28l76 -76l-32 -52zM400 529v-79h79zM310 56l-60 15v108l60 15l-32 52l76 76 l52 -32l15 60h79v50h-150v150h-250v-500zM650 110v30l-55 13q-4 20 -15 37l29 48l-21 21l-48 -29q-17 11 -37 15l-13 55h-30l-13 -55q-20 -4 -37 -15l-48 29l-21 -21l29 -48q-11 -17 -15 -37l-55 -13v-30l55 -13q4 -20 15 -37l-29 -48l21 -21l48 29q17 -11 37 -15l13 -55h30 l13 55q20 4 37 15l48 -29l21 21l-29 48q11 17 15 37z" />
<glyph unicode="&#xe402;" d="M251 550q-83 0 -141.5 -58.5t-58.5 -141.5t58.5 -141.5t141.5 -58.5t141.5 59t58.5 141t-58.5 141t-141.5 59zM251 600q103 0 176.5 -73t73.5 -177t-73.5 -177t-176.5 -73q-104 0 -178 73.5t-74 176.5t74 176.5t178 73.5zM426 400q-73 0 -124 -51.5t-51 -123.5t51 -123.5 t124 -51.5q72 0 123.5 51.5t51.5 123.5t-51.5 123.5t-123.5 51.5zM426 450q93 0 159 -66t66 -159t-66 -159t-159 -66q-94 0 -159.5 66t-65.5 159t65.5 159t159.5 66zM276 225q0 62 44 106t106 44q38 0 74 -21v-2q1 -1 1 -2q0 -82 -49 -147.5t-125 -89.5q-51 46 -51 112z" />
<glyph unicode="&#xe403;" d="M-36 -18q41 0 89 42q43 35 70 82.5t48 137.5q12 49 20 101q4 26 7 46l74 2l29 46h-92q27 141 36 141q20 0 43 -28q9 -9 19 -9q7 0 15 4q12 6 22.5 20.5t11.5 31.5q1 16 -13 32q-17 17 -52 17q-25 0 -61 -17.5t-68 -49.5q-40 -39 -69 -142h-40l-35 -33l11 -17h52 q-2 0 -8 -61q-4 -32 -16 -106q-18 -107 -30 -150q-4 -10 -13 -10q-25 0 -49 22q-7 6 -16 6q-10 0 -16 -7q-31 -22 -32 -52q0 -21 19.5 -35t43.5 -14zM465 98q62 0 124 99l5 7l-31 36l-10 -11q-13 -15 -23.5 -24.5t-13.5 -11.5l-2 -2q-6 0 -17 37l-28 89q25 33 38 44 q14 15 20 15q7 0 9 -5q14 -12 23 -12q18 0 34 15.5t17 38.5q2 24 -14 40q-14 14 -35 14q-27 0 -51.5 -21t-59.5 -70l-4 11q-9 27 -15.5 42t-19 26.5t-28.5 11.5q-52 0 -118 -96l-6 -8l33 -37l9 12q10 13 18 21.5t11 10.5l3 3q7 -7 17 -40l17 -60q-23 -34 -40 -54t-23 -23 l-6 -2q-5 0 -10 6q-13 10 -22 10q-18 0 -33 -16.5t-16 -40.5q0 -24 15 -39q14 -16 37 -16q30 0 54.5 24.5t63.5 86.5l9 -30q12 -38 27 -59.5t42 -21.5z" />
<glyph unicode="&#xe404;" d="M0 600h600v-600h-600v600zM150 50v100h-100v-100h100zM150 250v100h-100v-100h100zM150 450v100h-100v-100h100zM250 150v100h-100v-100h100zM250 350v100h-100v-100h100zM350 50v100h-100v-100h100zM350 250v100h-100v-100h100zM350 450v100h-100v-100h100zM450 150v100 h-100v-100h100zM450 350v100h-100v-100h100zM550 50v100h-100v-100h100zM550 250v100h-100v-100h100zM550 450v100h-100v-100h100z" />
<glyph unicode="&#xe405;" d="M645 85q0 -1 14 -16t17 -21v-44q-38 -4 -50 0q-5 2 -13 9t-14.5 14t-7.5 7q-18 7 -31 7q-14 0 -31 -7q-26 -13 -55 -13q-30 0 -56 13q-21 8 -31 7q-9 -2 -39.5 -19.5t-46.5 -17.5t-47.5 17.5t-39.5 19.5q-10 1 -31 -7q-26 -13 -55 -13q-30 0 -56 13q-18 7 -31 7 q-15 0 -31 -7l-8 -7q-7 -7 -15.5 -14t-13.5 -9t-17 -2t-22 1l-10 1q-4 34 0 44q2 6 16.5 21t14.5 16q7 17 7 36q0 17 -7 35q-11 26 -11 54t11 54q2 4 8.5 13t12.5 16l6 7q-23 25 -27 35q-11 26 -11 54t11 54q7 17 7 36t-7 36q0 1 -14.5 16t-16.5 21q-2 4 -2 15t1 20l1 9 q38 4 49 0q5 -2 13.5 -9t15.5 -14l8 -7q16 -7 31 -7q14 0 30 7q28 13 56 13q30 0 56 -13q19 -8 31 -7q9 2 39.5 19.5t46.5 17.5t47 -17.5t40 -19.5q10 -1 31 7q26 13 55 13q30 0 56 -13q17 -7 31 -7t31 7q1 0 7.5 7t14.5 14t13 9t17.5 2t22.5 -1l10 -1q4 -34 0 -44 q-3 -6 -17 -21t-14 -16q-7 -17 -7 -36q0 -17 7 -35q10 -24 10 -54t-10 -54q-2 -4 -8.5 -13t-12.5 -16l-6 -7q23 -25 27 -35q10 -24 10 -54t-10 -54q-7 -18 -7 -36q0 -19 7 -36zM550 100v400h-500v-400h500z" />
<glyph unicode="&#xe407;" d="M348 320l27 -27l-260 -261q-7 -4 -17.5 -9t-33 -12.5t-32.5 -5.5q-7 1 -16.5 10.5t-10.5 16.5q-2 10 4.5 30.5t14.5 36.5l8 16l261 260l27 -28l-260 -260l27 -27zM446 339l35 -36q7 -7 7 -18t-7 -18t-17.5 -7t-17.5 7l-179 179q-7 7 -7 17.5t7 17.5t18 7t18 -7l36 -35 l124 124q23 22 54 22t53 -22t22 -53t-22 -54z" />
<glyph unicode="&#xe408;" d="M0 0v100l100 -100h-100zM400 500l100 -100l-350 -350l-100 100zM500 600l100 -100l-81 -81l-100 100z" />
<glyph unicode="&#xe409;" d="M-45 75q29 -28 72.5 -5t71.5 80q18 35 54.5 44t66 -5t29.5 -39q0 -54 -61 -102t-120 -48q-21 0 -40.5 7.5t-32 19t-22 22.5t-13.5 19zM289 180l21 28q-9 27 -32 43.5t-54 17.5l-25 -25q1 0 2 -1q32 -1 55.5 -18t32.5 -45zM599 600h-43l-317 -318q67 -5 86 -59l274 339v38 z" />
<glyph unicode="&#xe40a;" d="M338 88v112q0 16 -11 27t-27 11h-262q-16 0 -27 -11t-11 -27v-112q0 -16 11 -27t27 -11h262q16 0 27 11t11 27zM563 538h-263l-262 -263h262q14 0 25 -4zM600 388v112q0 14 -10 26l-140 -157l-100 -113q25 -23 25 -56v-75l158 188z" />
<glyph unicode="&#xe40b;" d="M200 500h400v-50h-400v-50h-100v50h-100v50h100v50h100v-50zM300 150v-50h300v-50h-300v-50h-100v50h-200v50h200v50h100zM500 350v-50h100v-50h-100v-50h-100v50h-400v50h400v50h100z" />
<glyph unicode="&#xe40c;" d="M-50 550h700v-550h-700v550zM600 100v50h-400v50h-100v-50h-100v-50h100v-50h100v50h400zM600 250v50h-100v50h-100v-50h-400v-50h400v-50h100v50h100zM600 400v50h-400v50h-100v-50h-100v-50h100v-50h100v50h400z" />
<glyph unicode="&#xe40e;" d="M550 400h-100v-100h100v-50h-100v-100h100v-50h-100v-100h-50v100h-100v-100h-50v100h-100v-100h-50v100h-100v50h100v100h-100v50h100v100h-100v50h100v100h50v-100h100v100h50v-100h100v100h50v-100h100v-50zM150 400v-100h100v100h-100zM150 150h100v100h-100v-100z M400 150v100h-100v-100h100zM400 300v100h-100v-100h100z" />
<glyph unicode="&#xe40f;" d="M651 400h50v-50v-150h-752v150v50h50v-100h52v100h50v-50h50v50h50v-50h50v50h50v-100h50v100h50v-50h50v50h50v-50h50v50h50v-100h50v100z" />
<glyph unicode="&#xe410;" d="M100 50v-50h-100v100h50v50h-50v100h50v50h-50v100h50v50h-50v150l600 -600h-150v50h-50v-50h-100v50h-50v-50h-100v50h-50zM150 300v-150h150z" />
<glyph unicode="&#xe416;" d="M450 325q0 52 -36.5 88.5t-88.5 36.5t-88.5 -36.5t-36.5 -88.5t36.5 -88.5t88.5 -36.5t88.5 36.5t36.5 88.5zM347 507v45q0 10 -6.5 16.5t-15.5 6.5q-10 0 -16.5 -6.5t-6.5 -16.5v-45q0 -10 6.5 -16.5t16.5 -6.5q9 0 15.5 6.5t6.5 16.5zM347 98v45q0 10 -6.5 16.5 t-15.5 6.5q-10 0 -16.5 -6.5t-6.5 -16.5v-45q0 -10 6.5 -16.5t16.5 -6.5q9 0 15.5 6.5t6.5 16.5zM143 348h-46q-9 0 -15.5 -6.5t-6.5 -16.5q0 -9 6.5 -16t15.5 -7h46q9 0 15.5 7t6.5 16q0 10 -6.5 16.5t-15.5 6.5zM552 348h-46q-9 0 -15.5 -6.5t-6.5 -16.5q0 -9 6.5 -16 t15.5 -7h46q9 0 16 7t7 16q0 10 -7 16.5t-16 6.5zM180 213l-32 -32q-16 -17 0 -33q16 -14 32 0l32 33q16 16 0 32t-32 0zM469 502l-32 -32q-16 -16 0 -32t32 0l32 32q16 16 0 32t-32 0zM212 470l-32 32q-16 16 -32 0t0 -32l32 -32q16 -16 32 0t0 32zM501 181l-32 32 q-16 16 -32 0t0 -32l32 -33q16 -14 32 0q7 7 7 16.5t-7 16.5z" />
<glyph unicode="&#xe417;" d="M326 450q52 0 88.5 -36.5t36.5 -88.5t-36.5 -88.5t-88.5 -36.5t-88.5 36.5t-36.5 88.5q0 53 36.5 89t88.5 36zM326 513q-11 0 -18 6t-7 15v83q0 9 7 15t18 6q10 0 17.5 -6t7.5 -15v-83q0 -9 -7.5 -15t-17.5 -6zM326 138q10 0 17.5 -6t7.5 -15v-83q0 -9 -7.5 -15.5 t-17.5 -6.5q-11 0 -18 6t-7 16v83q0 9 7 15t18 6zM138 325q0 -10 -6 -17.5t-15 -7.5h-83q-9 0 -15.5 7.5t-6.5 17.5q0 11 6 18t16 7h83q9 0 15 -7t6 -18zM534 350h83q9 0 15 -7t6 -18q0 -10 -6 -17.5t-15 -7.5h-83q-9 0 -15 7.5t-6 17.5q0 11 6 18t15 7zM102 137l59 59 q15 14 32 -3t3 -32l-59 -59q-6 -7 -15.5 -6t-16.5 9q-8 7 -9 16.5t6 15.5zM549 514l-59 -59q-14 -15 -32 3t-3 32l59 59q6 7 15.5 6t16.5 -9q8 -7 9 -16.5t-6 -15.5zM161 455l-59 59q-7 6 -6 15.5t9 16.5q7 8 16.5 9t15.5 -6l59 -59q14 -14 -3 -32q-7 -7 -16.5 -8t-15.5 5z M490 196l59 -59q7 -6 6 -15.5t-9 -16.5q-7 -8 -16.5 -9t-15.5 6l-59 59q-6 6 -5 15.5t8 16.5q18 17 32 3z" />
<glyph unicode="&#xe418;" d="M300 50v500q-104 0 -177 -73t-73 -177t73 -177t177 -73zM300 0q-124 0 -212 88t-88 212t88 212t212 88t212 -88t88 -212t-88 -212t-212 -88z" />
<glyph unicode="&#xe419;" d="M275 225q0 31 -22 53t-53 22t-53 -22t-22 -53t22 -53t53 -22t53 22t22 53zM225 400q0 31 22 53t53 22v-150q-31 0 -53 22t-22 53zM300 600q124 0 212 -88t88 -212t-88 -212t-212 -88t-212 88t-88 212t88 212t212 88zM300 50v275q31 0 53 22t22 53t-22 53t-53 22v75 q-104 0 -177 -73t-73 -177t73 -177t177 -73zM400 150q31 0 53 22t22 53t-22 53t-53 22t-53 -22t-22 -53t22 -53t53 -22z" />
<glyph unicode="&#xe41a;" d="M400 0l-125 600l-125 -600h250z" />
<glyph unicode="&#xe41b;" d="M444 169q0 57 -29 122t-73 149.5t-66 159.5q-23 -75 -67 -160t-73 -149.5t-29 -121.5q0 -70 49.5 -119.5t119.5 -49.5t119 49.5t49 119.5z" />
<glyph unicode="&#xe41c;" d="M500 400q41 0 70.5 29.5t29.5 70.5t-29.5 70.5t-70.5 29.5q-42 0 -71 -29.5t-29 -70.5t29 -70.5t71 -29.5zM500 562q26 0 44 -18t18 -44t-18.5 -44.5t-43.5 -18.5q-26 0 -44.5 18.5t-18.5 44.5t18.5 44t44.5 18zM350 525v-300q50 -38 50 -100q0 -52 -37 -88.5t-88 -36.5 q-52 0 -88.5 36.5t-36.5 88.5q0 63 50 100v300q0 31 22 53t53 22t53 -22t22 -53zM250 525v-225h50v225q0 10 -7.5 17.5t-17.5 7.5q-11 0 -18 -7t-7 -18z" />
<glyph unicode="&#xe41d;" d="M300 600q124 0 212 -88t88 -212t-88 -212t-212 -88v75q93 0 159 66t66 159t-66 159t-159 66t-158 -67l108 -108h-246h-4v250l89 -89q87 89 211 89z" />
<glyph unicode="&#xe41e;" d="M511 511l89 89v-250h-4h-246l108 108q-65 67 -158 67t-159 -66t-66 -159t66 -159t159 -66v-75q-124 0 -212 88t-88 212t88 212t212 88t211 -89z" />
<glyph unicode="&#xe41f;" d="M500 466v-264h100v-100h-100v-101h-100v101h-199h-100v100v199h-101v100h101v100h100v-100h264l118 118l35 -35zM365 401h-164v-164zM400 202v164l-164 -164h164z" />
</font>
</defs>
</svg>
